PDA

View Full Version : Does AR database identify a CD with a unique identification number?



Oliver
06-28-2014, 12:44 AM
Hi,

I got this report in CUETools:

Track [ CRC | V2 ] Status
01 [acd9b3d6|0ac7e965] (007+000/528) Accurately ripped
02 [850d250b|933e9659] (007+002/525) Accurately ripped
03 (007+002/529) Accurately ripped
04 [5a99b657|47f4559c] (007+002/528) Accurately ripped
05 [485d6950|3e13582d] (007+002/527) Accurately ripped
06 [8eb638c9|7cece9c4] (007+002/526) Accurately ripped
07 [29e8ad91|d06060b9] (007+002/527) Accurately ripped
08 [7bb71b0b|6876b98c] (007+002/525) Accurately ripped
09 [37beaf95|5112dfa5] (007+002/527) Accurately ripped
10 [9260d49c|191b3fc9] (007+002/527) Accurately ripped
11 [13ecd9d8|7ad0ecf8] (007+002/523) Accurately ripped
12 [3ed6c94f|ffe3d788] (006+002/527) Accurately ripped


I have 7 matches but there are over 500 Rips stored which I donīt match.
Does it mean that I have a different pressing?

[B]Is there a unique identification in every CD, that AR database stores to recognize a CD clearly?
And when different pressings do exist, do they all have the same identification number, because its one and the same album?
So the database recognizes every CD that is stored clearly, also when it is a different pressing?
Otherwise, I could not understand how the message "you may have a different pressing" comes about in another case, when I have 0 matches


Now in this case I haven't got this message, but I conclude, that I have a different pressing, is that right?

Spoon
06-28-2014, 05:26 AM
Yes it will be a different pressing. The CD TOC is used to create an identification. Pressings have identical tocs to the other pressings.

Oliver
06-29-2014, 06:36 AM
OK Thanks...



And this result from CUETools?
I have 7 matches in the AR database (5+2) , but over 1600 I donīt match!
Is this also a different pressing?

Track | CTDB Status
1 | (596/613) Accurately ripped
2 | (595/613) Accurately ripped
3 | (597/613) Accurately ripped
4 | (591/613) Accurately ripped
5 | (594/613) Accurately ripped
6 | (596/613) Accurately ripped
7 | (593/613) Accurately ripped
8 | (596/613) Accurately ripped
9 | (595/613) Accurately ripped
10 | (598/613) Accurately ripped
11 | (596/613) Accurately ripped
12 | (594/613) Accurately ripped
13 | (594/613) Accurately ripped
14 | (595/613) Accurately ripped
15 | (593/613) Accurately ripped
16 | (597/613) Accurately ripped
17 | (584/613) Accurately ripped
18 | (578/613) Accurately ripped
[AccurateRip ID: 0029f4ee-022953eb-f90ed012] found.
Track [ CRC | V2 ] Status
01 [ba48bcfc|e3195a0b] (006+002/1676) Accurately ripped
02 [49b3df8e|78202c67] (005+002/1671) Accurately ripped
03 [6050109d|5ea29d85] (005+002/1672) Accurately ripped
04 [1770bfc7|b1c6fc32] (005+002/1671) Accurately ripped
05 [7b63d5d9|7ce05ea1] (005+002/1666) Accurately ripped
06 [e5710ee0|c0e7660f] (005+002/1662) Accurately ripped
07 [19c637ab|541a560a] (005+002/1672) Accurately ripped
08 [c539b0bf|48a361f1] (005+002/1668) Accurately ripped
09 [9bdedc44|5a37ef98] (005+002/1664) Accurately ripped
10 [3e5ffa27|159cd63f] (005+002/1663) Accurately ripped
11 [432cbb03|aa626e69] (005+002/1663) Accurately ripped
12 [9a5a3743|39a9bfe6] (005+002/1659) Accurately ripped
13 [aa6dd020|780bcbf5] (005+002/1659) Accurately ripped
14 [de89efb7|de6e1686] (005+002/1655) Accurately ripped
15 [225d90f1|2cbd3f7c] (005+002/1662) Accurately ripped
16 [aac95b2c|61cb6e19] (005+002/1661) Accurately ripped
17 [2f288049|2200d089] (005+002/1655) Accurately ripped
18 [f2d30ee4|9a593385] (005+002/1649) Accurately ripped

Spoon
06-29-2014, 07:23 AM
Yes it looks like a different pressing, the match numbers does not matter (it could be 2 or 2000) a match is a match.