PDA

View Full Version : Corrupted Files



Thg6276
05-10-2014, 04:31 PM
Bonjour,

I have in my library 8 corrupted files (FLAC) with Perfect Tunes where on the other side there are noted as Accurate in log file issued by DBP CD Ripper.

An exemple with ZZ TOP / Recycler

PERFECT TUNES

Corrupted Tracks

\\Ripstation\d\Ma musique\ZZ Top\Recycler\05 My Head's In Mississippi.flac
\\Ripstation\d\Ma musique\ZZ Top\Recycler\06 Decision Or Collision.flac
\\Ripstation\d\Ma musique\ZZ Top\Recycler\07 Give It Up.flac

CD RIPPER

Track 5: Ripped LBA 71375 to 91260 (4:25) in 1:06. Filename: D:\Ma musique\ZZ Top\Recycler\05 My Head's In Mississippi.flac
AccurateRip: Accurate (confidence 190) [Pass 1]
CRC32: 016A2E52 AccurateRip CRC: 09771E58 (CRCv2) [DiscID: 010-000f0a20-0078e358-7c09590a-5]
AccurateRip Verified Confidence 190 [CRCv2 9771e58]
AccurateRip Verified Confidence 200 [CRCv1 71c55f2d]
AccurateRip Verified Confidence 33 [CRCv2 f24de81a], Using Pressing Offset -1077
AccurateRip Verified Confidence 37 [CRCv1 ec09d402], Using Pressing Offset -1077

Track 6: Ripped LBA 91260 to 109485 (4:03) in 1:00. Filename: D:\Ma musique\ZZ Top\Recycler\06 Decision Or Collision.flac
AccurateRip: Accurate (confidence 187) [Pass 1]
CRC32: 627A527E AccurateRip CRC: DD97E9D4 (CRCv2) [DiscID: 010-000f0a20-0078e358-7c09590a-6]
AccurateRip Verified Confidence 187 [CRCv2 dd97e9d4]
AccurateRip Verified Confidence 200 [CRCv1 b68b8331]
AccurateRip Verified Confidence 33 [CRCv2 4a9e9c45], Using Pressing Offset -1077
AccurateRip Verified Confidence 37 [CRCv1 d084e995], Using Pressing Offset -1077

Track 7: Ripped LBA 109485 to 125528 (3:33) in 0:53. Filename: D:\Ma musique\ZZ Top\Recycler\07 Give It Up.flac
AccurateRip: Accurate (confidence 188) [Pass 1]
CRC32: B80C4A87 AccurateRip CRC: 4054348F (CRCv2) [DiscID: 010-000f0a20-0078e358-7c09590a-7]
AccurateRip Verified Confidence 188 [CRCv2 4054348f]
AccurateRip Verified Confidence 200 [CRCv1 be30e02d]
AccurateRip Verified Confidence 33 [CRCv2 47791d14], Using Pressing Offset -1077
AccurateRip Verified Confidence 37 [CRCv1 a0ac6647], Using Pressing Offset -1077

Could you explain why ?

Thanks in advance for your usual help.

Spoon
05-10-2014, 04:37 PM
Try R1.7 of PerfectTUNES (in the testing section of this forum) and set to clear the database then rescan.