title
Products            Buy            Support Forum            Professional            About            Codec Central
 
Results 1 to 5 of 5

Thread: Can't get secure rip

  1. #1

    Join Date
    Jun 2009
    Posts
    6

    Can't get secure rip

    I just purchased 13.2 and can't get a secure rip most of the time. When I turn off all aborts, I got 1 CD to give about 90% of the tracks to rip secure, but it took close to 4 hours. Most CD's require re-rips of several thousand frames. I've tried resetting the drive offset to 0 and using several CDs to obtain a new offset: results are always the same (+667). I've tried detecting Drive Read Cache several times using different CDs and always get the same value (39kb). I am using an LG Blue-Ray drive and ripping to a SCSI array. Here is the log:

    dBpoweramp Release 13.2 Digital Audio Extraction Log from Saturday, June 27, 2009 8:21 PM

    Drive & Settings
    ----------------

    Ripping with drive 'G: [HL-DT-ST - BD-RE GGW-H20L ]', Drive offset: 667, Overread Lead-in/out: No
    AccurateRip: Active, Using C2: Yes, Cache: 39 KB, FUA Cache Invalidate: No
    Pass 1 Drive Speed: Max, Pass 2 Drive Speed: Max
    Ultra:: Vary Drive Speed: No, Min Passes: 1, Max Passes: 2, Finish After Clean Passes: 1
    Bad Sector Re-rip:: Drive Speed: Max, Maximum Re-reads: 60

    Encoder: FLAC -compression-level-5
    DSP Effects / Actions: -dspeffect1="Audio CD - Hidden Track Silence Removal= -dbsilence={qt}-45{qt} -window={qt}4000{qt}" -dspeffect2="Audio CD - Silence Track Deletion= -dbsilence={qt}-45{qt}" -dspeffect3="ReplayGain="

    Extraction Log
    --------------

    Track 1: Ripped LBA 0 to 20747 (4:36) in 0:29. Filename: M:\Music\Garbage\Version 2.0\Garbage - 01 - Temptation Waits.flac
    Insecure [Pass 1, Ultra 1 to 1, Re-Rip 2094 Frames]
    CRC32: 00000000 AccurateRip CRC: 00000000 [DiscID: 012-0015b4e1-00cae822-b90ba20c-1]
    ** Aborted: Have to ReRip 2094 Frames, Re-Rip Limit Set to 100 Frames

    Track 2: Ripped LBA 20747 to 37107 (3:38) in 0:30. Filename: M:\Music\Garbage\Version 2.0\Garbage - 02 - I Think I'm Paranoid.flac
    Insecure [Pass 1, Ultra 1 to 2, Re-Rip 3299 Frames]
    CRC32: 00000000 AccurateRip CRC: 00000000 [DiscID: 012-0015b4e1-00cae822-b90ba20c-2]
    ** Aborted: Have to ReRip 3299 Frames, Re-Rip Limit Set to 100 Frames

    Track 3: Ripped LBA 37107 to 52445 (3:24) in 0:17. Filename: M:\Music\Garbage\Version 2.0\Garbage - 03 - When I Grow Up.flac
    Insecure [Pass 1, Ultra 1 to 1, Re-Rip 2806 Frames]
    CRC32: 00000000 AccurateRip CRC: 00000000 [DiscID: 012-0015b4e1-00cae822-b90ba20c-3]
    ** Aborted: Have to ReRip 2806 Frames, Re-Rip Limit Set to 100 Frames

    Track 4: Ripped LBA 52445 to 71052 (4:08) in 1:20. Filename: M:\Music\Garbage\Version 2.0\Garbage - 04 - Medication.flac
    Insecure [Pass 1, Ultra 1 to 2, Re-Rip 3756 Frames]
    CRC32: 00000000 AccurateRip CRC: 00000000 [DiscID: 012-0015b4e1-00cae822-b90ba20c-4]
    ** Aborted: Have to ReRip 3756 Frames, Re-Rip Limit Set to 100 Frames

    Track 5: Ripped LBA 71052 to 87822 (3:43) in 0:51. Filename: M:\Music\Garbage\Version 2.0\Garbage - 05 - Special.flac
    Insecure [Pass 1, Ultra 1 to 2, Re-Rip 3401 Frames]
    CRC32: 00000000 AccurateRip CRC: 00000000 [DiscID: 012-0015b4e1-00cae822-b90ba20c-5]
    ** Aborted: Have to ReRip 3401 Frames, Re-Rip Limit Set to 100 Frames

    Track 6: Ripped LBA 87822 to 109727 (4:52) in 0:46. Filename: M:\Music\Garbage\Version 2.0\Garbage - 06 - Hammering in My Head.flac
    Insecure [Pass 1, Ultra 1 to 1, Re-Rip 4080 Frames]
    CRC32: 00000000 AccurateRip CRC: 00000000 [DiscID: 012-0015b4e1-00cae822-b90ba20c-6]
    ** Aborted: Have to ReRip 4080 Frames, Re-Rip Limit Set to 100 Frames

    Track 7: Ripped LBA 109727 to 127917 (4:02) in 0:24. Filename: M:\Music\Garbage\Version 2.0\Garbage - 07 - Push It.flac
    Insecure [Pass 1, Ultra 1 to 2, Re-Rip 3654 Frames]
    CRC32: 00000000 AccurateRip CRC: 00000000 [DiscID: 012-0015b4e1-00cae822-b90ba20c-7]
    ** Aborted: Have to ReRip 3654 Frames, Re-Rip Limit Set to 100 Frames

    Track 8: Ripped LBA 127917 to 146792 (4:11) in 0:24. Filename: M:\Music\Garbage\Version 2.0\Garbage - 08 - The Trick Is to Keep Breathing.flac
    Insecure [Pass 1, Ultra 1 to 2, Re-Rip 3800 Frames]
    CRC32: 00000000 AccurateRip CRC: 00000000 [DiscID: 012-0015b4e1-00cae822-b90ba20c-8]
    ** Aborted: Have to ReRip 3800 Frames, Re-Rip Limit Set to 100 Frames

    Track 9: Ripped LBA 146792 to 164075 (3:50) in 0:21. Filename: M:\Music\Garbage\Version 2.0\Garbage - 09 - Dumb.flac
    Insecure [Pass 1, Ultra 1 to 2, Re-Rip 3452 Frames]
    CRC32: 00000000 AccurateRip CRC: 00000000 [DiscID: 012-0015b4e1-00cae822-b90ba20c-9]
    ** Aborted: Have to ReRip 3452 Frames, Re-Rip Limit Set to 100 Frames

    Track 10: Ripped LBA 164075 to 182337 (4:03) in 0:21. Filename: M:\Music\Garbage\Version 2.0\Garbage - 10 - Sleep Together.flac
    Insecure [Pass 1, Ultra 1 to 2, Re-Rip 3674 Frames]
    CRC32: 00000000 AccurateRip CRC: 00000000 [DiscID: 012-0015b4e1-00cae822-b90ba20c-10]
    ** Aborted: Have to ReRip 3674 Frames, Re-Rip Limit Set to 100 Frames

    Track 11: Ripped LBA 182337 to 199120 (3:43) in 0:44. Filename: M:\Music\Garbage\Version 2.0\Garbage - 11 - Wicked Ways.flac
    Insecure [Pass 1, Ultra 1 to 2, Re-Rip 3345 Frames]
    CRC32: 00000000 AccurateRip CRC: 00000000 [DiscID: 012-0015b4e1-00cae822-b90ba20c-11]
    ** Aborted: Have to ReRip 3345 Frames, Re-Rip Limit Set to 100 Frames

    Track 12: Ripped LBA 199120 to 223420 (5:24) in 0:52. Filename: M:\Music\Garbage\Version 2.0\Garbage - 12 - You Look So Fine.flac
    Insecure [Pass 1, Ultra 1 to 2, Re-Rip 4853 Frames]
    CRC32: 00000000 AccurateRip CRC: 00000000 [DiscID: 012-0015b4e1-00cae822-b90ba20c-12]
    ** Aborted: Have to ReRip 4853 Frames, Re-Rip Limit Set to 100 Frames

    --------------

    12 Tracks Ripped Inaccurately
    Last edited by HeiDO; 06-27-2009 at 10:42 PM.

  2. #2

    Join Date
    Jun 2009
    Posts
    6

    Re: Can't get secure rip

    PS: I also uninstalled, used the clean-up link to delete traces, reinstalled, and got the same results.

  3. #3
    Administrator
    Join Date
    Apr 2002
    Posts
    41,990

    Re: Can't get secure rip

    Turn off C2 error pointers and retry.

  4. #4

    Join Date
    Jun 2009
    Posts
    6

    Talking Re: Can't get secure rip

    Wow, that did it all right! Thanks! :smile2:

    PS: I don't get it...?

  5. #5
    Administrator
    Join Date
    Apr 2002
    Posts
    41,990

    Re: Can't get secure rip

    You are not the only one:

    http://forum.dbpoweramp.com/showthre...light=GGW-H20L

    This drive has a faulty firmware.

Posting Permissions

  • You may not post new threads
  • You may not post replies
  • You may not post attachments
  • You may not edit your posts
  •