title
Products            Buy            Support Forum            Professional            About            Codec Central
 
Page 2 of 2 FirstFirst 12
Results 16 to 28 of 28

Thread: CD Ripper R17 does not rip a whole single file image

  1. #16

    Join Date
    Sep 2011
    Posts
    18

    Re: CD Ripper R17 does not rip a whole single file image

    Quote Originally Posted by mville View Post
    My next troubleshooting steps would be:

    1. Backup my Windows 10 PC

    2. Clean re-install of R17.x

    If R17.x still does not work:

    3. Run the System File Checker tool

    4. Run Deployment Image Servicing and Management (DISM) health check

    NOTE: run 3 and 4 at your own risk, i.e. understand how these tools work and how they impact a Windows 10 system. Just sayin'
    The PC with all of his hardware was build up from me in April 2020 and so the Windows installation is nearly clean.

    I don't want to do some changes on my main system yet. Never change a running system

    I'll try to install it again on a clean Windows 10, if I've finished to build up my 3rd PC or will use a Laptop and try it there also on a clean Windows installation.

    Going back to R16.6 for now and try to find the problem using some other PCs and not my main system. Coming back later if I can figure it out where there might be the problem.


    But maybe the problem with the of the Album Performer is using the last track's Performer of the disc, within the cue sheet can be fixed in a next release?

    E.q. if I've got a compilaton with Various Artists and the performer of last track is Madonna, Various Artists should be the performer of the album's cue sheet and right now it is Madonna.

  2. #17
    Administrator
    Join Date
    Apr 2002
    Posts
    40,624

    Re: CD Ripper R17 does not rip a whole single file image

    We will look at that.

    With regards to the ripping length, run dBpoweramp Control Center and enable debug mode, rip the CD with R17, then R16 and post the 2 logs please.

  3. #18
    dBpoweramp Guru
    Join Date
    Dec 2008
    Location
    London, UK
    Posts
    3,726

    Re: CD Ripper R17 does not rip a whole single file image

    Quote Originally Posted by Trimonium View Post
    The PC with all of his hardware was build up from me in April 2020 and so the Windows installation is nearly clean.
    If you are quite sure the Windows 10 build is up-to-date with no corruption, then it suggests the issue is with R17.x.

  4. #19

    Join Date
    Sep 2011
    Posts
    18

    Re: CD Ripper R17 does not rip a whole single file image

    Code:
    dBpoweramp Release 16.6 Digital Audio Extraction Log from Donnerstag, 11. Juni 2020 16:25
    
    Drive & Settings
    ----------------
    
    Ripping with drive 'Y:   [Optiarc  - DVD RW AD-7200S ]',  Drive offset: 48,  Overread Lead-in/out: No
    AccurateRip: Active,  Using C2: No,  Cache: 1024 KB,  FUA Cache Invalidate: No
    Pass 1 Drive Speed: Max,  Pass 2 Drive Speed: 4
    Ultra::  Vary Drive Speed: No,  Min Passes: 3,  Max Passes: 6,  Finish After Clean Passes: 2
    Bad Sector Re-rip::  Drive Speed: Max,  Maximum Re-reads: 34
    
    Encoder: [CUE Single File Image] -temp="%tmp%" -encoder="Wave" -enc_settings="" -outputcue="0" -path="I:\dbPoweramp\" -filename="[IFVALUE]album artist,[album artist],[IFCOMP]Various Artists[][IF!COMP][artist][][] - [album]"
    DSP Effects / Actions: -dspeffect1="_CUEEncoder="
    
    Extraction Log
    --------------
    
    Track 1:  Ripped LBA 0 to 31787 (7:03) in 0:25. Filename: I:\dbPoweramp\Various Artists\Pulse; This Is Psychedelic Trance, Disc 1\01 Stanley Shanti & The Chillum Wallahs - Placid.IGNORE
      AccurateRip: Accurate (confidence 15)     [Pass 1]
      CRC32: 715C49E1     AccurateRip CRC: 40CC5B01 (CRCv2)     [DiscID: 010-001d12da-00e9a5a4-9312520a-1]
      AccurateRip Verified Confidence 15 [CRCv2 40cc5b01]
      AccurateRip Verified Confidence 14 [CRCv1 2710d7fd]
    
    Track 2:  Ripped LBA 31787 to 63767 (7:06) in 0:22. Filename: I:\dbPoweramp\Various Artists\Pulse; This Is Psychedelic Trance, Disc 1\02 Green Nuns of the Revolution - Cor.IGNORE
      AccurateRip: Accurate (confidence 15)     [Pass 1]
      CRC32: 628BEAA8     AccurateRip CRC: 604A54AF (CRCv2)     [DiscID: 010-001d12da-00e9a5a4-9312520a-2]
      AccurateRip Verified Confidence 15 [CRCv2 604a54af]
      AccurateRip Verified Confidence 14 [CRCv1 bebeeb86]
    
    Track 3:  Ripped LBA 63767 to 99612 (7:57) in 0:22. Filename: I:\dbPoweramp\Various Artists\Pulse; This Is Psychedelic Trance, Disc 1\03 Boris Blenn - Portamento.IGNORE
      AccurateRip: Accurate (confidence 14)     [Pass 1]
      CRC32: 8D91D823     AccurateRip CRC: 27C7E3EB (CRCv2)     [DiscID: 010-001d12da-00e9a5a4-9312520a-3]
      AccurateRip Verified Confidence 14 [CRCv2 27c7e3eb]
      AccurateRip Verified Confidence 14 [CRCv1 e443d0ea]
    
    Track 4:  Ripped LBA 99612 to 140680 (9:07) in 0:23. Filename: I:\dbPoweramp\Various Artists\Pulse; This Is Psychedelic Trance, Disc 1\04 Brain Accent - Orange Acid.IGNORE
      AccurateRip: Accurate (confidence 13)     [Pass 1]
      CRC32: 18234736     AccurateRip CRC: 75AA5C3B (CRCv2)     [DiscID: 010-001d12da-00e9a5a4-9312520a-4]
      AccurateRip Verified Confidence 13 [CRCv2 75aa5c3b]
      AccurateRip Verified Confidence 14 [CRCv1 72675a2c]
    
    Track 5:  Ripped LBA 140680 to 175022 (7:37) in 0:17. Filename: I:\dbPoweramp\Various Artists\Pulse; This Is Psychedelic Trance, Disc 1\05 Transwave - Axonal.IGNORE
      AccurateRip: Accurate (confidence 14)     [Pass 1]
      CRC32: 4E492FAD     AccurateRip CRC: D625519E (CRCv2)     [DiscID: 010-001d12da-00e9a5a4-9312520a-5]
      AccurateRip Verified Confidence 14 [CRCv2 d625519e]
      AccurateRip Verified Confidence 14 [CRCv1 e348aeb3]
    
    Track 6:  Ripped LBA 175022 to 207585 (7:14) in 0:15. Filename: I:\dbPoweramp\Various Artists\Pulse; This Is Psychedelic Trance, Disc 1\06 Art of Trance - Octopus (Man With No Name remix).IGNORE
      AccurateRip: Accurate (confidence 13)     [Pass 1]
      CRC32: E704A467     AccurateRip CRC: 99B0CADD (CRCv2)     [DiscID: 010-001d12da-00e9a5a4-9312520a-6]
      AccurateRip Verified Confidence 13 [CRCv2 99b0cadd]
      AccurateRip Verified Confidence 14 [CRCv1 fb554cb7]
    
    Track 7:  Ripped LBA 207585 to 245012 (8:19) in 0:17. Filename: I:\dbPoweramp\Various Artists\Pulse; This Is Psychedelic Trance, Disc 1\07 Rainbow Spirit - Prana.IGNORE
      AccurateRip: Accurate (confidence 14)     [Pass 1]
      CRC32: 3C4E8601     AccurateRip CRC: DA703B36 (CRCv2)     [DiscID: 010-001d12da-00e9a5a4-9312520a-7]
      AccurateRip Verified Confidence 14 [CRCv2 da703b36]
      AccurateRip Verified Confidence 14 [CRCv1 39316f01]
    
    Track 8:  Ripped LBA 245012 to 278555 (7:27) in 0:14. Filename: I:\dbPoweramp\Various Artists\Pulse; This Is Psychedelic Trance, Disc 1\08 Doof - Born Again.IGNORE
      AccurateRip: Accurate (confidence 15)     [Pass 1]
      CRC32: B21CD2C9     AccurateRip CRC: 50ACB3D6 (CRCv2)     [DiscID: 010-001d12da-00e9a5a4-9312520a-8]
      AccurateRip Verified Confidence 15 [CRCv2 50acb3d6]
      AccurateRip Verified Confidence 14 [CRCv1 dd6ed23c]
    
    Track 9:  Ripped LBA 278555 to 311600 (7:20) in 0:13. Filename: I:\dbPoweramp\Various Artists\Pulse; This Is Psychedelic Trance, Disc 1\09 Disco Volante - Moon Raker (Man With No Name remix).IGNORE
      AccurateRip: Accurate (confidence 16)     [Pass 1]
      CRC32: E6AE6F4B     AccurateRip CRC: D7DA3401 (CRCv2)     [DiscID: 010-001d12da-00e9a5a4-9312520a-9]
      AccurateRip Verified Confidence 16 [CRCv2 d7da3401]
      AccurateRip Verified Confidence 13 [CRCv1 a99edef1]
    
    Track 10:  Ripped LBA 311600 to 351750 (8:55) in 0:15. Filename: I:\dbPoweramp\Various Artists\Pulse; This Is Psychedelic Trance, Disc 1\10 Sourmash - The Blessing.IGNORE
      AccurateRip: Accurate (confidence 14)     [Pass 1]
      CRC32: 641315CE     AccurateRip CRC: CCE48458 (CRCv2)     [DiscID: 010-001d12da-00e9a5a4-9312520a-10]
      AccurateRip Verified Confidence 14 [CRCv2 cce48458]
      AccurateRip Verified Confidence 13 [CRCv1 e570bf3a]
    
    --------------
    
    10 Tracks Ripped Accurately
    Ripped with R16.6

    Result = Correct size of image file 789 MB

  5. #20

    Join Date
    Sep 2011
    Posts
    18

    Re: CD Ripper R17 does not rip a whole single file image

    Code:
    dBpoweramp Release 17 Digital Audio Extraction Log from Donnerstag, 11. Juni 2020 15:56
    
    Drive & Settings
    ----------------
    
    Ripping with drive 'Y:   [Optiarc  - DVD RW AD-7200S ]',  Drive offset: 48,  Overread Lead-in/out: No
    AccurateRip: Active,  Using C2: No,  Cache: 1024 KB,  FUA Cache Invalidate: No
    Pass 1 Drive Speed: Max,  Pass 2 Drive Speed: 4
    Ultra::  Vary Drive Speed: No,  Min Passes: 3,  Max Passes: 6,  Finish After Clean Passes: 2
    Bad Sector Re-rip::  Drive Speed: Max,  Maximum Re-reads: 34
    
    Encoder: [CUE Single File Image] -temp="%tmp%" -encoder="Wave" -enc_settings="" -outputcue="0" -path="I:\dbPoweramp\" -filename="[IFVALUE]album artist,[album artist],[IFCOMP]Various Artists[][IF!COMP][artist][][] - [album]"
    DSP Effects / Actions: -dspeffect1="_CUEEncoder="
    
    Extraction Log
    --------------
    
    Track 1:  Ripped LBA 0 to 31787 (7:03) in 0:28. Filename: I:\dbPoweramp\Various Artists\Pulse; This Is Psychedelic Trance, Disc 1\01 Stanley Shanti & The Chillum Wallahs - Placid.IGNORE
      AccurateRip: Accurate (confidence 15)     [Pass 1]
      CRC32: 715C49E1     AccurateRip CRC: 40CC5B01 (CRCv2)     [DiscID: 010-001d12da-00e9a5a4-9312520a-1]
      AccurateRip Verified Confidence 15 [CRCv2 40cc5b01]
      AccurateRip Verified Confidence 14 [CRCv1 2710d7fd]
    
    Track 2:  Ripped LBA 31787 to 63767 (7:06) in 0:22. Filename: I:\dbPoweramp\Various Artists\Pulse; This Is Psychedelic Trance, Disc 1\02 Green Nuns of the Revolution - Cor.IGNORE
      AccurateRip: Accurate (confidence 15)     [Pass 1]
      CRC32: 628BEAA8     AccurateRip CRC: 604A54AF (CRCv2)     [DiscID: 010-001d12da-00e9a5a4-9312520a-2]
      AccurateRip Verified Confidence 15 [CRCv2 604a54af]
      AccurateRip Verified Confidence 14 [CRCv1 bebeeb86]
    
    Track 3:  Ripped LBA 63767 to 99612 (7:57) in 0:22. Filename: I:\dbPoweramp\Various Artists\Pulse; This Is Psychedelic Trance, Disc 1\03 Boris Blenn - Portamento.IGNORE
      AccurateRip: Accurate (confidence 14)     [Pass 1]
      CRC32: 8D91D823     AccurateRip CRC: 27C7E3EB (CRCv2)     [DiscID: 010-001d12da-00e9a5a4-9312520a-3]
      AccurateRip Verified Confidence 14 [CRCv2 27c7e3eb]
      AccurateRip Verified Confidence 14 [CRCv1 e443d0ea]
    
    Track 4:  Ripped LBA 99612 to 140680 (9:07) in 0:23. Filename: I:\dbPoweramp\Various Artists\Pulse; This Is Psychedelic Trance, Disc 1\04 Brain Accent - Orange Acid.IGNORE
      AccurateRip: Accurate (confidence 13)     [Pass 1]
      CRC32: 18234736     AccurateRip CRC: 75AA5C3B (CRCv2)     [DiscID: 010-001d12da-00e9a5a4-9312520a-4]
      AccurateRip Verified Confidence 13 [CRCv2 75aa5c3b]
      AccurateRip Verified Confidence 14 [CRCv1 72675a2c]
    
    Track 5:  Ripped LBA 140680 to 175022 (7:37) in 0:17. Filename: I:\dbPoweramp\Various Artists\Pulse; This Is Psychedelic Trance, Disc 1\05 Transwave - Axonal.IGNORE
      AccurateRip: Accurate (confidence 14)     [Pass 1]
      CRC32: 4E492FAD     AccurateRip CRC: D625519E (CRCv2)     [DiscID: 010-001d12da-00e9a5a4-9312520a-5]
      AccurateRip Verified Confidence 14 [CRCv2 d625519e]
      AccurateRip Verified Confidence 14 [CRCv1 e348aeb3]
    
    Track 6:  Ripped LBA 175022 to 207585 (7:14) in 0:15. Filename: I:\dbPoweramp\Various Artists\Pulse; This Is Psychedelic Trance, Disc 1\06 Art of Trance - Octopus (Man With No Name remix).IGNORE
      AccurateRip: Accurate (confidence 13)     [Pass 1]
      CRC32: E704A467     AccurateRip CRC: 99B0CADD (CRCv2)     [DiscID: 010-001d12da-00e9a5a4-9312520a-6]
      AccurateRip Verified Confidence 13 [CRCv2 99b0cadd]
      AccurateRip Verified Confidence 14 [CRCv1 fb554cb7]
    
    Track 7:  Ripped LBA 207585 to 245012 (8:19) in 0:17. Filename: I:\dbPoweramp\Various Artists\Pulse; This Is Psychedelic Trance, Disc 1\07 Rainbow Spirit - Prana.IGNORE
      AccurateRip: Accurate (confidence 14)     [Pass 1]
      CRC32: 3C4E8601     AccurateRip CRC: DA703B36 (CRCv2)     [DiscID: 010-001d12da-00e9a5a4-9312520a-7]
      AccurateRip Verified Confidence 14 [CRCv2 da703b36]
      AccurateRip Verified Confidence 14 [CRCv1 39316f01]
    
    Track 8:  Ripped LBA 245012 to 278555 (7:27) in 0:14. Filename: I:\dbPoweramp\Various Artists\Pulse; This Is Psychedelic Trance, Disc 1\08 Doof - Born Again.IGNORE
      AccurateRip: Accurate (confidence 15)     [Pass 1]
      CRC32: B21CD2C9     AccurateRip CRC: 50ACB3D6 (CRCv2)     [DiscID: 010-001d12da-00e9a5a4-9312520a-8]
      AccurateRip Verified Confidence 15 [CRCv2 50acb3d6]
      AccurateRip Verified Confidence 14 [CRCv1 dd6ed23c]
    
    Track 9:  Ripped LBA 278555 to 311600 (7:20) in 0:13. Filename: I:\dbPoweramp\Various Artists\Pulse; This Is Psychedelic Trance, Disc 1\09 Disco Volante - Moon Raker (Man With No Name remix).IGNORE
      AccurateRip: Accurate (confidence 16)     [Pass 1]
      CRC32: E6AE6F4B     AccurateRip CRC: D7DA3401 (CRCv2)     [DiscID: 010-001d12da-00e9a5a4-9312520a-9]
      AccurateRip Verified Confidence 16 [CRCv2 d7da3401]
      AccurateRip Verified Confidence 13 [CRCv1 a99edef1]
    
    Track 10:  Ripped LBA 311600 to 351750 (8:55) in 0:15. Filename: I:\dbPoweramp\Various Artists\Pulse; This Is Psychedelic Trance, Disc 1\10 Sourmash - The Blessing.IGNORE
      AccurateRip: Accurate (confidence 14)     [Pass 1]
      CRC32: 641315CE     AccurateRip CRC: CCE48458 (CRCv2)     [DiscID: 010-001d12da-00e9a5a4-9312520a-10]
      AccurateRip Verified Confidence 14 [CRCv2 cce48458]
      AccurateRip Verified Confidence 13 [CRCv1 e570bf3a]
    
    --------------
    
    10 Tracks Ripped Accurately
    Ripped with R17

    Result = Incorrect size of image file = 507 MB

  6. #21

    Join Date
    Sep 2011
    Posts
    18

    Re: CD Ripper R17 does not rip a whole single file image

    I've also found out, that this must have something to do with the updates of Windows 10.

    I've tried another rip on my 2nd PC using me test partition of Windows 10, that I've used until end of February 2020, before I've build up my new PC.

    I've done a rip with another cd before I've installed the update using R17 and got a correct file size of 783 MB. After the Windows update I'll get a file size of 706 MB.

    So for me the problem belongs somehow to an Windows update after end of February 2020. I'll try to get some more informations what updates has been spread out since them.


    Overall I think, that everyone with an up to date Windows 10 should get the same problems now. But I know, that only a few people are using a single image and a cue file.

  7. #22
    Administrator
    Join Date
    Apr 2002
    Posts
    40,624

    Re: CD Ripper R17 does not rip a whole single file image

    Check your %tmp% folder has 5GB of free space or more.

  8. #23

    Join Date
    Sep 2011
    Posts
    18

    Re: CD Ripper R17 does not rip a whole single file image

    Is %tmp% using the path and folder that I'm using in the advanced settings?

    Configuration\Advanced Settings\When Converting\
    Temporary Folder: S:\temp\dBpoweramp

    If yes, then I've aprox 600GB free space there.

  9. #24

    Join Date
    Sep 2011
    Posts
    18

    Re: CD Ripper R17 does not rip a whole single file image

    Code:
    Using SCSI PassThrough  [clCDDA::SetCommunication]
    ->->  [frmMain::RefreshTrackListing]
      Quitting Meta Thread: Quit
      ->->  [clCDDA::ReturnDriveList]
        Got drive C:\  ** not CD Rom, type: 3  [cddaSCSIPassTru::FillDriveList]
        Got drive D:\  ** not CD Rom, type: 3  [cddaSCSIPassTru::FillDriveList]
        Got drive F:\  ** not CD Rom, type: 3  [cddaSCSIPassTru::FillDriveList]
        Got drive H:\  ** not CD Rom, type: 3  [cddaSCSIPassTru::FillDriveList]
        Got drive I:\  ** not CD Rom, type: 3  [cddaSCSIPassTru::FillDriveList]
        Got drive J:\  ** not CD Rom, type: 3  [cddaSCSIPassTru::FillDriveList]
        Got drive K:\  ** not CD Rom, type: 3  [cddaSCSIPassTru::FillDriveList]
        Got drive L:\  ** not CD Rom, type: 3  [cddaSCSIPassTru::FillDriveList]
        Got drive S:\  ** not CD Rom, type: 3  [cddaSCSIPassTru::FillDriveList]
        Got drive Y:\  CD ROM  [cddaSCSIPassTru::FillDriveList]
        Got drive Z:\  CD ROM  [cddaSCSIPassTru::FillDriveList]
      <-<-  [clCDDA::ReturnDriveList]
      ->->  [clCDDA::ReadTOC]
        LBA FirstIndex: 1 last Index: 10
          Type: Audio Track 1  LBA Address: 0  Length: 00:07:03,826
          Type: Audio Track 2  LBA Address: 31787  Length: 00:07:06,400
          Type: Audio Track 3  LBA Address: 63767  Length: 00:07:57,934
          Type: Audio Track 4  LBA Address: 99612  Length: 00:09:07,573
          Type: Audio Track 5  LBA Address: 140680  Length: 00:07:37,893
          Type: Audio Track 6  LBA Address: 175022  Length: 00:07:14,174
          Type: Audio Track 7  LBA Address: 207585  Length: 00:08:19,026
          Type: Audio Track 8  LBA Address: 245012  Length: 00:07:27,240
          Type: Audio Track 9  LBA Address: 278555  Length: 00:07:20,600
          Type: Audio Track 10  LBA Address: 311600  Length: 00:08:55,334
          Type: Lead Out  LBA Address: 351750
        MSF FirstIndex: 1 last Index: 10
          Type: Audio Track 1  MSF: 0/2/0  Length: 00:07:03,826
          Type: Audio Track 2  MSF: 7/5/62  Length: 00:07:06,400
          Type: Audio Track 3  MSF: 14/12/17  Length: 00:07:57,934
          Type: Audio Track 4  MSF: 22/10/12  Length: 00:09:07,573
          Type: Audio Track 5  MSF: 31/17/55  Length: 00:07:37,893
          Type: Audio Track 6  MSF: 38/55/47  Length: 00:07:14,174
          Type: Audio Track 7  MSF: 46/9/60  Length: 00:08:19,026
          Type: Audio Track 8  MSF: 54/28/62  Length: 00:07:27,240
          Type: Audio Track 9  MSF: 61/56/5  Length: 00:07:20,600
          Type: Audio Track 10  MSF: 69/16/50  Length: 00:08:55,334
          Type: Lead Out  MSF: 78/12/0
        Track 01: LBA Start: 0   LBA End: 31787   LBA GapStart 31785 (00.00 Frames 02)
        Track 02: LBA Start: 31787   LBA End: 63767   LBA GapStart 63765 (00.00 Frames 02)
        Track 03: LBA Start: 63767   LBA End: 99612   LBA GapStart 99610 (00.00 Frames 02)
        Track 04: LBA Start: 99612   LBA End: 140680   LBA GapStart 140677 (00.00 Frames 03)
        Track 05: LBA Start: 140680   LBA End: 175022   LBA GapStart 175020 (00.00 Frames 02)
        Track 06: LBA Start: 175022   LBA End: 207585   LBA GapStart 207582 (00.00 Frames 03)
        Track 07: LBA Start: 207585   LBA End: 245012   LBA GapStart 245010 (00.00 Frames 02)
        Track 08: LBA Start: 245012   LBA End: 278555   LBA GapStart 278552 (00.00 Frames 03)
        Track 09: LBA Start: 278555   LBA End: 311600   LBA GapStart 311597 (00.00 Frames 03)
        Track 10: LBA Start: 311600   LBA End: 351750   LBA GapStart 351750 (00.00 Frames 00)
        Adding Index Track 01: Index 1  Index LBA 0 (ABS Time 00:00:00)  LBA Track Start: 0   LBA Track End (gap removed): 31785   LBA GapStart 1
        Adding Index Track 02: Index 0  Index LBA 31785 (ABS Time 07:03:60)  LBA Track Start: 31787   LBA Track End (gap removed): 63765   LBA GapStart 1
        Adding Index Track 02: Index 1  Index LBA 31787 (ABS Time 07:03:62)  LBA Track Start: 31787   LBA Track End (gap removed): 63765   LBA GapStart 1
        Adding Index Track 03: Index 0  Index LBA 63765 (ABS Time 14:10:15)  LBA Track Start: 63767   LBA Track End (gap removed): 99610   LBA GapStart 1
        Adding Index Track 03: Index 1  Index LBA 63767 (ABS Time 14:10:17)  LBA Track Start: 63767   LBA Track End (gap removed): 99610   LBA GapStart 1
        Adding Index Track 04: Index 0  Index LBA 99610 (ABS Time 22:08:10)  LBA Track Start: 99612   LBA Track End (gap removed): 140677   LBA GapStart 1
        Adding Index Track 04: Index 1  Index LBA 99612 (ABS Time 22:08:12)  LBA Track Start: 99612   LBA Track End (gap removed): 140677   LBA GapStart 1
        Adding Index Track 05: Index 0  Index LBA 140677 (ABS Time 31:15:52)  LBA Track Start: 140680   LBA Track End (gap removed): 175020   LBA GapStart 1
        Adding Index Track 05: Index 1  Index LBA 140680 (ABS Time 31:15:55)  LBA Track Start: 140680   LBA Track End (gap removed): 175020   LBA GapStart 1
        Adding Index Track 06: Index 0  Index LBA 175020 (ABS Time 38:53:45)  LBA Track Start: 175022   LBA Track End (gap removed): 207582   LBA GapStart 1
        Adding Index Track 06: Index 1  Index LBA 175022 (ABS Time 38:53:47)  LBA Track Start: 175022   LBA Track End (gap removed): 207582   LBA GapStart 1
        Adding Index Track 07: Index 0  Index LBA 207582 (ABS Time 46:07:57)  LBA Track Start: 207585   LBA Track End (gap removed): 245010   LBA GapStart 1
        Adding Index Track 07: Index 1  Index LBA 207585 (ABS Time 46:07:60)  LBA Track Start: 207585   LBA Track End (gap removed): 245010   LBA GapStart 1
        Adding Index Track 08: Index 0  Index LBA 245010 (ABS Time 54:26:60)  LBA Track Start: 245012   LBA Track End (gap removed): 278552   LBA GapStart 1
        Adding Index Track 08: Index 1  Index LBA 245012 (ABS Time 54:26:62)  LBA Track Start: 245012   LBA Track End (gap removed): 278552   LBA GapStart 1
        Adding Index Track 09: Index 0  Index LBA 278552 (ABS Time 61:54:02)  LBA Track Start: 278555   LBA Track End (gap removed): 311597   LBA GapStart 1
        Adding Index Track 09: Index 1  Index LBA 278555 (ABS Time 61:54:05)  LBA Track Start: 278555   LBA Track End (gap removed): 311597   LBA GapStart 1
        Adding Index Track 10: Index 0  Index LBA 311597 (ABS Time 69:14:47)  LBA Track Start: 311600   LBA Track End (gap removed): 351750   LBA GapStart 1
        Adding Index Track 10: Index 1  Index LBA 311600 (ABS Time 69:14:50)  LBA Track Start: 311600   LBA Track End (gap removed): 351750   LBA GapStart 1
      <-<-  [clCDDA::ReadTOC]
      ->->  [frmMain::GetMeta]
        ->->  [clMetaData::GetMetaData]
          ->->  [clMetadBCache::GetMetaData]
          <-<-  [clMetadBCache::GetMetaData]
        <-<-  [clMetaData::GetMetaData]
        ->->  [frmMain::MetaDataGot]
          Meta Final Pass
        <-<-  [frmMain::MetaDataGot]
      <-<-  [frmMain::GetMeta]
    <-<-  [frmMain::RefreshTrackListing]
    dBpoweramp Release 17 Digital Audio Extraction Log from Freitag, 12. Juni 2020 19:22
    
    Drive & Settings
    ----------------
    
    Ripping with drive 'Y:   [Optiarc  - DVD RW AD-7200S ]',  Drive offset: 48,  Overread Lead-in/out: No
    AccurateRip: Active,  Using C2: No,  Cache: 1024 KB,  FUA Cache Invalidate: No
    Pass 1 Drive Speed: Max,  Pass 2 Drive Speed: 4
    Ultra::  Vary Drive Speed: No,  Min Passes: 3,  Max Passes: 6,  Finish After Clean Passes: 2
    Bad Sector Re-rip::  Drive Speed: Max,  Maximum Re-reads: 34
    
    Encoder: [CUE Single File Image] -temp="S:\temp\dBpoweramp" -encoder="Wave" -enc_settings="" -outputcue="0" -path="I:\dbPoweramp\" -filename="[IFVALUE]album artist,[album artist],[IFCOMP]Various Artists[][IF!COMP][artist][][] - [album]"
    DSP Effects / Actions: -dspeffect1="_CUEEncoder="
    
    Extraction Log
    --------------
    ->->  [clMetaData::SaveMetaData]
      ->->  [clMetadBCache::SaveMetaData]
      <-<-  [clMetadBCache::SaveMetaData]
    <-<-  [clMetaData::SaveMetaData]
    Just seen that there is another option for a log in the Advanced Settings. Actived it an ripped the same disc as before again.

  10. #25
    Administrator
    Join Date
    Apr 2002
    Posts
    40,624

    Re: CD Ripper R17 does not rip a whole single file image

    No it is likely the cuesheet codec uses %tmp%

  11. #26

    Join Date
    Sep 2011
    Posts
    18

    Re: CD Ripper R17 does not rip a whole single file image

    Quote Originally Posted by Spoon View Post
    No it is likely the cuesheet codec uses %tmp%
    Thanks. Aprox 400GB free space on the drive that Windows 10 was using for %tmp%.

  12. #27
    Administrator
    Join Date
    Apr 2002
    Posts
    40,624

    Re: CD Ripper R17 does not rip a whole single file image

    Could not reproduce the Various Artist issue, I tried setting the album artist to 'Various Artists' and the cue was written correctly with the main performer as 'Various Artists'

    I was using R17.1 from the testing section of this forum.

  13. #28

    Join Date
    Sep 2011
    Posts
    18

    Re: CD Ripper R17 does not rip a whole single file image

    Quote Originally Posted by Spoon View Post
    Could not reproduce the Various Artist issue, I tried setting the album artist to 'Various Artists' and the cue was written correctly with the main performer as 'Various Artists'

    I was using R17.1 from the testing section of this forum.
    Thanks, this was my problem. The Album Artist was blank when I've tried it. Is there something in the settings that I can auto fill this field when I have a compilation?`


    I've also tried it now again on my Windows 7 PC. Also R17.0 don't rip the correct size of the image file. I'll try it again with R17.1. But R16 still works fine.

Posting Permissions

  • You may not post new threads
  • You may not post replies
  • You may not post attachments
  • You may not edit your posts
  •