title
Products            Buy            Support Forum            Professional            About            Codec Central
 
Results 1 to 2 of 2

Thread: different results

  1. #1

    Join Date
    Apr 2013
    Posts
    24

    different results

    I have ripped a few discs to a flac single file image and all tracks are Rip Status: Accurate less one which comes up with Rip Status: Error.

    If I rip just the error track it comes up Rip Status: Accurate. Try the image again and get Error on the one track again.

    1. Why would it Error one way and be Accurate the other (even trying different speeds)?

    2. Is there a way to rip the individual track and add it to the flac image?

    3. When ripping the flac image if I look in the log file it says all tracks are ripped Accurately but the main dBpoweramp window says the last track is Error??????

    (image and log text below)

    Thanks




    Code:
    dBpoweramp Release 14.4 Digital Audio Extraction Log from Thursday, May 02, 2013 19:34
    
    Drive & Settings
    ----------------
    
    Ripping with drive 'X:   [HL-DT-ST - DVDRAM GH24NS50 ]',  Drive offset: 667,  Overread Lead-in/out: No
    AccurateRip: Active,  Using C2: Yes,  Cache: 39 KB,  FUA Cache Invalidate: No
    Pass 1 Drive Speed: Max,  Pass 2 Drive Speed: Max
    Ultra::  Vary Drive Speed: No,  Min Passes: 1,  Max Passes: 2,  Finish After Clean Passes: 1
    Bad Sector Re-rip::  Drive Speed: Max,  Maximum Re-reads: 34
    
    Encoder: [CUE Sheet Image] -temp="%tmp%" -encoder="FLAC" -enc_settings="-uncompressed -verify" -outputcue="0" -path="G:\RIP_ZTEMP\" -filename="[artist]  [year]  [album]\[artist]  [album]"
    DSP Effects / Actions: -dspeffect1="ID Tag Processing=-case={qt}3{qt} -exportart={qt}(none){qt} -importart={qt}(none){qt} -maxart={qt}(any){qt} -maxartkb={qt}(any){qt} -removemonthdayfromyear" -dspeffect2="_CUEEncoder="
    
    Extraction Log
    --------------
    
    Track 1:  Ripped LBA 0 to 20122 (4:28) in 0:20. Filename: C:\Users\crucifyd\Music\77's, The\1 2 3  Disc 3\01 77's, The - Do It For Love.IGNORE
      AccurateRip: Accurate (confidence 5)     [Pass 1]
      CRC32: 3D945DDF     AccurateRip CRC: 7B5DEFFF     [DiscID: 017-0030d3ec-0266946a-0411f711-1]
      AccurateRip Verified Confidence 5 [CRCv1 7b5defff]
      AccurateRip Verified Confidence 5 [CRCv1 7b5defff]
    
    Track 2:  Ripped LBA 20122 to 40942 (4:37) in 0:13. Filename: C:\Users\crucifyd\Music\77's, The\1 2 3  Disc 3\02 77's, The - I Can't Get Over It.IGNORE
      AccurateRip: Accurate (confidence 4)     [Pass 1]
      CRC32: 9AB0DC69     AccurateRip CRC: 587AB3AA     [DiscID: 017-0030d3ec-0266946a-0411f711-2]
      AccurateRip Verified Confidence 4 [CRCv1 587ab3aa]
      AccurateRip Verified Confidence 4 [CRCv1 587ab3aa]
    
    Track 3:  Ripped LBA 40942 to 54997 (3:07) in 0:08. Filename: C:\Users\crucifyd\Music\77's, The\1 2 3  Disc 3\03 77's, The - What Was Iin That Letter.IGNORE
      AccurateRip: Accurate (confidence 4)     [Pass 1]
      CRC32: 8330449F     AccurateRip CRC: CD5D9A4E     [DiscID: 017-0030d3ec-0266946a-0411f711-3]
      AccurateRip Verified Confidence 4 [CRCv1 cd5d9a4e]
      AccurateRip Verified Confidence 4 [CRCv1 cd5d9a4e]
    
    Track 4:  Ripped LBA 54997 to 92560 (8:20) in 0:20. Filename: C:\Users\crucifyd\Music\77's, The\1 2 3  Disc 3\04 77's, The - Pearls Before Swine.IGNORE
      AccurateRip: Accurate (confidence 4)     [Pass 1]
      CRC32: 00576C9B     AccurateRip CRC: DFE48710     [DiscID: 017-0030d3ec-0266946a-0411f711-4]
      AccurateRip Verified Confidence 4 [CRCv1 dfe48710]
      AccurateRip Verified Confidence 4 [CRCv1 dfe48710]
    
    Track 5:  Ripped LBA 92560 to 109820 (3:50) in 0:08. Filename: C:\Users\crucifyd\Music\77's, The\1 2 3  Disc 3\05 77's, The - The Lust, The Flesh, The Eyes & The Pride Of Life.IGNORE
      AccurateRip: Accurate (confidence 5)     [Pass 1]
      CRC32: 4945FDBF     AccurateRip CRC: E9F05D8D     [DiscID: 017-0030d3ec-0266946a-0411f711-5]
      AccurateRip Verified Confidence 5 [CRCv1 e9f05d8d]
      AccurateRip Verified Confidence 5 [CRCv1 e9f05d8d]
    
    Track 6:  Ripped LBA 109820 to 129212 (4:18) in 0:09. Filename: C:\Users\crucifyd\Music\77's, The\1 2 3  Disc 3\06 77's, The - Frames Without Photographs.IGNORE
      AccurateRip: Accurate (confidence 4)     [Pass 1]
      CRC32: AEEE556C     AccurateRip CRC: 7475F16A     [DiscID: 017-0030d3ec-0266946a-0411f711-6]
      AccurateRip Verified Confidence 4 [CRCv1 7475f16a]
      AccurateRip Verified Confidence 4 [CRCv1 7475f16a]
    
    Track 7:  Ripped LBA 129212 to 149582 (4:31) in 0:09. Filename: C:\Users\crucifyd\Music\77's, The\1 2 3  Disc 3\07 77's, The - Don't Say Goodbye.IGNORE
      AccurateRip: Accurate (confidence 5)     [Pass 1]
      CRC32: F751524F     AccurateRip CRC: 49250138     [DiscID: 017-0030d3ec-0266946a-0411f711-7]
      AccurateRip Verified Confidence 5 [CRCv1 49250138]
      AccurateRip Verified Confidence 5 [CRCv1 49250138]
    
    Track 8:  Ripped LBA 149582 to 166955 (3:51) in 0:07. Filename: C:\Users\crucifyd\Music\77's, The\1 2 3  Disc 3\08 77's, The - Bottom Line.IGNORE
      AccurateRip: Accurate (confidence 4)     [Pass 1]
      CRC32: 8F9B07CB     AccurateRip CRC: E23A62EE     [DiscID: 017-0030d3ec-0266946a-0411f711-8]
      AccurateRip Verified Confidence 4 [CRCv1 e23a62ee]
      AccurateRip Verified Confidence 4 [CRCv1 e23a62ee]
    
    Track 9:  Ripped LBA 166955 to 202307 (7:51) in 0:14. Filename: C:\Users\crucifyd\Music\77's, The\1 2 3  Disc 3\09 77's, The - I Could Laugh.IGNORE
      AccurateRip: Accurate (confidence 4)     [Pass 1]
      CRC32: 1DA7DE05     AccurateRip CRC: 923D183A     [DiscID: 017-0030d3ec-0266946a-0411f711-9]
      AccurateRip Verified Confidence 4 [CRCv1 923d183a]
      AccurateRip Verified Confidence 4 [CRCv1 923d183a]
    
    Track 10:  Ripped LBA 202307 to 217060 (3:16) in 0:05. Filename: C:\Users\crucifyd\Music\77's, The\1 2 3  Disc 3\10 77's, The - Do It For Love (Demo).IGNORE
      AccurateRip: Accurate (confidence 4)     [Pass 1]
      CRC32: 1BA0F49A     AccurateRip CRC: E2E0A753     [DiscID: 017-0030d3ec-0266946a-0411f711-10]
      AccurateRip Verified Confidence 4 [CRCv1 e2e0a753]
      AccurateRip Verified Confidence 4 [CRCv1 e2e0a753]
    
    Track 11:  Ripped LBA 217060 to 237212 (4:28) in 0:07. Filename: C:\Users\crucifyd\Music\77's, The\1 2 3  Disc 3\11 77's, The - I Can't Get Over It (Live 8-Track Demo).IGNORE
      AccurateRip: Accurate (confidence 4)     [Pass 1]
      CRC32: CE836314     AccurateRip CRC: 5B0CDF60     [DiscID: 017-0030d3ec-0266946a-0411f711-11]
      AccurateRip Verified Confidence 4 [CRCv1 5b0cdf60]
      AccurateRip Verified Confidence 4 [CRCv1 5b0cdf60]
    
    Track 12:  Ripped LBA 237212 to 251432 (3:09) in 0:05. Filename: C:\Users\crucifyd\Music\77's, The\1 2 3  Disc 3\12 77's, The - What Was In That Letter (Live 8-Track Demo).IGNORE
      AccurateRip: Accurate (confidence 4)     [Pass 1]
      CRC32: D9F207D8     AccurateRip CRC: B49E633C     [DiscID: 017-0030d3ec-0266946a-0411f711-12]
      AccurateRip Verified Confidence 4 [CRCv1 b49e633c]
      AccurateRip Verified Confidence 4 [CRCv1 b49e633c]
    
    Track 13:  Ripped LBA 251432 to 267185 (3:30) in 0:05. Filename: C:\Users\crucifyd\Music\77's, The\1 2 3  Disc 3\13 77's, The - The Lust, The Flesh, The Eyes & The Pride Of Life (Live 8-Track Demo).IGNORE
      AccurateRip: Accurate (confidence 4)     [Pass 1]
      CRC32: 378D3EAD     AccurateRip CRC: A5D925BC     [DiscID: 017-0030d3ec-0266946a-0411f711-13]
      AccurateRip Verified Confidence 4 [CRCv1 a5d925bc]
      AccurateRip Verified Confidence 4 [CRCv1 a5d925bc]
    
    Track 14:  Ripped LBA 267185 to 282752 (3:27) in 0:05. Filename: C:\Users\crucifyd\Music\77's, The\1 2 3  Disc 3\14 77's, The - Frames Without Photographs (Live 8-Track Demo).IGNORE
      AccurateRip: Accurate (confidence 4)     [Pass 1]
      CRC32: 1447D22A     AccurateRip CRC: 169D3CDD     [DiscID: 017-0030d3ec-0266946a-0411f711-14]
      AccurateRip Verified Confidence 4 [CRCv1 169d3cdd]
      AccurateRip Verified Confidence 4 [CRCv1 169d3cdd]
    
    Track 15:  Ripped LBA 282752 to 307445 (5:29) in 0:08. Filename: C:\Users\crucifyd\Music\77's, The\1 2 3  Disc 3\15 77's, The - Don't Say Goodbye (Demo).IGNORE
      AccurateRip: Accurate (confidence 4)     [Pass 1]
      CRC32: C70F1A36     AccurateRip CRC: 65046ED4     [DiscID: 017-0030d3ec-0266946a-0411f711-15]
      AccurateRip Verified Confidence 4 [CRCv1 65046ed4]
      AccurateRip Verified Confidence 4 [CRCv1 65046ed4]
    
    Track 16:  Ripped LBA 307445 to 325442 (3:59) in 0:06. Filename: C:\Users\crucifyd\Music\77's, The\1 2 3  Disc 3\16 77's, The - Mt (Unreleased Alternative Mix).IGNORE
      AccurateRip: Accurate (confidence 4)     [Pass 1]
      CRC32: 35DD7704     AccurateRip CRC: 7F97344E     [DiscID: 017-0030d3ec-0266946a-0411f711-16]
      AccurateRip Verified Confidence 4 [CRCv1 7f97344e]
      AccurateRip Verified Confidence 4 [CRCv1 7f97344e]
    
    Track 17:  Ripped LBA 325442 to 344955 (4:20) in 0:06. Filename: C:\Users\crucifyd\Music\77's, The\1 2 3  Disc 3\17 77's, The - Don't, This Way (Single Version).IGNORE
      AccurateRip: Accurate (confidence 4)     [Pass 1]
      CRC32: EA0177EE     AccurateRip CRC: 9557B6F3     [DiscID: 017-0030d3ec-0266946a-0411f711-17]
      AccurateRip Verified Confidence 4 [CRCv1 9557b6f3]
      AccurateRip Verified Confidence 4 [CRCv1 9557b6f3]
    
    --------------
    
    17 Tracks Ripped Accurately
    Last edited by crucifyd; 05-02-2013 at 09:53 PM.

  2. #2
    dBpoweramp Guru
    Join Date
    Jan 2011
    Posts
    937

    Re: different results

    Odd that the error does not appear in the log, check that you have plenty of free disc space (2gb free on the drive you store music to and the drive that is the location of the temp folder )

Posting Permissions

  • You may not post new threads
  • You may not post replies
  • You may not post attachments
  • You may not edit your posts
  •