title
Products            Buy            Support Forum            Professional            About            Codec Central
 
Results 1 to 6 of 6

Thread: Weird error

  1. #1

    Weird error

    I have this CD that's a bit scratched but I have seen a lot worse. When I ripped it I get the errors shown below. It seems to have successfully created all the FLAC files though (they sound fine).

    Last edited by HenryVIII; 06-15-2011 at 10:15 PM.

  2. #2
    Administrator
    Join Date
    Apr 2002
    Posts
    42,948

    Re: Weird error

    What does the information page show?

  3. #3

    Re: Weird error

    From the log:

    Code:
    dBpoweramp Release 14.2 BETA Digital Audio Extraction Log from Wednesday, June 15, 2011 09:47 PM
    
    Drive & Settings
    ----------------
    
    Ripping with drive 'D:   [SONY     - DVD RW AW-G170S ]',  Drive offset: 48,  Overread Lead-in/out: No
    AccurateRip: Active,  Using C2: Yes,  Cache: None,  FUA Cache Invalidate: No
    Pass 1 Drive Speed: Max,  Pass 2 Drive Speed: Max
    Bad Sector Re-rip::  Drive Speed: Max,  Maximum Re-reads: 34
    
    Encoder: FLAC -compression-level-5
    DSP Effects / Actions: -dspeffect1="ID Tag Processing=-delsingle0={qt}Rating{qt} -case={qt}0{qt} -exportart={qt}folder.jpg{qt} -importart={qt}(none){qt} -maxart={qt}500x500 pixels{qt} -arttojpg -rulemap={qt}IF Disc=1/1{_RET_}SET Disc={_RET_}{_RET_}IF Disc=1/2{_RET_}SET Disc=1{_RET_}{_RET_}IF Disc=2/2{_RET_}SET Disc=2{_RET_}{_RET_}IF Disc=1/3{_RET_}SET Disc=1{_RET_}{_RET_}IF Disc=2/3{_RET_}SET Disc=2{_RET_}{_RET_}IF Disc=3/3{_RET_}SET Disc=3{_RET_}{qt}" -dspeffect2="ReplayGain=-albummode={qt}0{qt}" -dspeffect3="HDCD="
    
    Extraction Log
    --------------
    
    Track 1:  Ripped LBA 33 to 9090 (2:00) in 0:07. Filename: C:\Users\Henry\Downloads\Music\DBPA-Rip\The Art of Noise\In Visible Silence\The Art of Noise - 01 - Opus 4.flac
      AccurateRip: Accurate (confidence 6)     [Pass 1]
      CRC32: 557B2E6A     AccurateRip CRC: A254DD6E     [DiscID: 012-00157dec-00cd6d67-8e0bfe0c-1]
      AccurateRip Verified Confidence 6 [CRCv1 a254dd6e]
    
    Track 2:  Ripped LBA 9090 to 30583 (4:46) in 0:16. Filename: C:\Users\Henry\Downloads\Music\DBPA-Rip\The Art of Noise\In Visible Silence\The Art of Noise - 02 - Paranoimia.flac
      AccurateRip: Accurate (confidence 6)     [Pass 1]
      CRC32: 760F4392     AccurateRip CRC: 899A4AFC     [DiscID: 012-00157dec-00cd6d67-8e0bfe0c-2]
      AccurateRip Verified Confidence 6 [CRCv1 899a4afc]
    
    Track 3:  Ripped LBA 30583 to 50350 (4:23) in 0:13. Filename: C:\Users\Henry\Downloads\Music\DBPA-Rip\The Art of Noise\In Visible Silence\The Art of Noise - 03 - Eye of a Needle.flac
      AccurateRip: Accurate (confidence 5)     [Pass 1]
      CRC32: 35D852B4     AccurateRip CRC: B27CBFD4     [DiscID: 012-00157dec-00cd6d67-8e0bfe0c-3]
      AccurateRip Verified Confidence 5 [CRCv1 b27cbfd4]
    
    Track 4:  Ripped LBA 50350 to 68863 (4:06) in 0:11. Filename: C:\Users\Henry\Downloads\Music\DBPA-Rip\The Art of Noise\In Visible Silence\The Art of Noise - 04 - Legs.flac
      AccurateRip: Accurate (confidence 6)     [Pass 1]
      CRC32: 4C345DE4     AccurateRip CRC: D263AA6A     [DiscID: 012-00157dec-00cd6d67-8e0bfe0c-4]
      AccurateRip Verified Confidence 6 [CRCv1 d263aa6a]
    
    Track 5:  Ripped LBA 68863 to 75538 (1:29) in 0:03. Filename: C:\Users\Henry\Downloads\Music\DBPA-Rip\The Art of Noise\In Visible Silence\The Art of Noise - 05 - Slip of the Tongue.flac
      AccurateRip: Accurate (confidence 6)     [Pass 1]
      CRC32: 9D511000     AccurateRip CRC: 27870222     [DiscID: 012-00157dec-00cd6d67-8e0bfe0c-5]
      AccurateRip Verified Confidence 6 [CRCv1 27870222]
    
    Track 6:  Ripped LBA 75538 to 94183 (4:08) in 0:10. Filename: C:\Users\Henry\Downloads\Music\DBPA-Rip\The Art of Noise\In Visible Silence\The Art of Noise - 06 - Backbeat.flac
      AccurateRip: Accurate (confidence 6)     [Pass 1]
      CRC32: 54A43988     AccurateRip CRC: 556B5C63     [DiscID: 012-00157dec-00cd6d67-8e0bfe0c-6]
      AccurateRip Verified Confidence 6 [CRCv1 556b5c63]
    
    Track 7:  Ripped LBA 94183 to 126755 (7:14) in 0:17. Filename: C:\Users\Henry\Downloads\Music\DBPA-Rip\The Art of Noise\In Visible Silence\The Art of Noise - 07 - Instruments of Darkness.flac
      AccurateRip: Accurate (confidence 6)     [Pass 1]
      CRC32: 5E7E2A2C     AccurateRip CRC: CAB2C54A     [DiscID: 012-00157dec-00cd6d67-8e0bfe0c-7]
      AccurateRip Verified Confidence 6 [CRCv1 cab2c54a]
    
    Track 8:  Ripped LBA 126755 to 144613 (3:58) in 0:08. Filename: C:\Users\Henry\Downloads\Music\DBPA-Rip\The Art of Noise\In Visible Silence\The Art of Noise - 08 - Peter Gunn (Featuring Duane Eddy).flac
      AccurateRip: Accurate (confidence 6)     [Pass 1]
      CRC32: 878C2701     AccurateRip CRC: E6538141     [DiscID: 012-00157dec-00cd6d67-8e0bfe0c-8]
      AccurateRip Verified Confidence 6 [CRCv1 e6538141]
    
    Track 9:  Ripped LBA 144613 to 177903 (7:23) in 0:15. Filename: C:\Users\Henry\Downloads\Music\DBPA-Rip\The Art of Noise\In Visible Silence\The Art of Noise - 09 - Camilla.flac
      AccurateRip: Accurate (confidence 6)     [Pass 1]
      CRC32: BA198F30     AccurateRip CRC: E15DED30     [DiscID: 012-00157dec-00cd6d67-8e0bfe0c-9]
      AccurateRip Verified Confidence 6 [CRCv1 e15ded30]
    
    Track 10:  Ripped LBA 177903 to 197118 (4:16) in 0:08. Filename: C:\Users\Henry\Downloads\Music\DBPA-Rip\The Art of Noise\In Visible Silence\The Art of Noise - 10 - Chameleon's Dish.flac
      AccurateRip: Accurate (confidence 6)     [Pass 1]
      CRC32: 84D835BC     AccurateRip CRC: 10635DE9     [DiscID: 012-00157dec-00cd6d67-8e0bfe0c-10]
      AccurateRip Verified Confidence 6 [CRCv1 10635de9]
    
    Track 11:  Ripped LBA 197118 to 203203 (1:21) in 0:02. Filename: C:\Users\Henry\Downloads\Music\DBPA-Rip\The Art of Noise\In Visible Silence\The Art of Noise - 11 - Beatback.flac
      AccurateRip: Accurate (confidence 6)     [Pass 1]
      CRC32: 61DDAA66     AccurateRip CRC: 137C5B51     [DiscID: 012-00157dec-00cd6d67-8e0bfe0c-11]
      AccurateRip Verified Confidence 6 [CRCv1 137c5b51]
    
    Track 12:  Ripped LBA 203203 to 230260 (6:00) in 0:11. Filename: C:\Users\Henry\Downloads\Music\DBPA-Rip\The Art of Noise\In Visible Silence\The Art of Noise - 12 - Peter Gunn (Extended Version).flac
      AccurateRip: Accurate (confidence 7)     [Pass 1]
      CRC32: DBDE5E70     AccurateRip CRC: FBF8565D     [DiscID: 012-00157dec-00cd6d67-8e0bfe0c-12]
      AccurateRip Verified Confidence 7 [CRCv1 fbf8565d]
    
    --------------
    
    12 Tracks Ripped Accurately

  4. #4
    Administrator
    Join Date
    Apr 2002
    Posts
    42,948

    Re: Weird error

    Is the issue repeatable?

  5. #5

    Re: Weird error

    Quote Originally Posted by Spoon View Post
    Is the issue repeatable?
    Yes.

  6. #6
    dBpoweramp Guru
    Join Date
    Jan 2011
    Posts
    937

    Re: Weird error

    Try removing your DSP effects, if still no go, try as a test ripping to Test Conversion

Posting Permissions

  • You may not post new threads
  • You may not post replies
  • You may not post attachments
  • You may not edit your posts
  •