title
Products            Buy            Support Forum            Professional            About            Codec Central
 
Results 1 to 15 of 16

Thread: Rip Problems

Hybrid View

Previous Post Previous Post   Next Post Next Post
  1. #1

    Rip Problems

    I have been using DB poweramp for a while mainly for tagging my collection that I ripped in EAC. Now I have started to use poweramp for ripping new CD's and I can't get it right. Even if a CD is brand new or an old one but in perfect condition I recive RIP errors and re-ripps that don't sort out the problem. I have a bought a brand new ASUS SDRW-08UM9M-U external CD/DVD drive to replace an an old one that is also an ASUS but that didn't help.
    I just ripped Nanci Griffiths Other Voices Too from 1998. Sometimes I got a track that can't be read sometimes, the last four tracks can't be verified. I re-installed DBP and then it ripped the disc perfect according to Accurate Rip. Then with another CD there is again "There was error"
    When listening to the re-ripped tracks there is stuttering and/or drop outs. I tried to set up the drive according to the manual but that didn't help either. I wan't to Rip once and get a correct result. If it helps I rip everything (2500 Cd's) to wav files and never had this problem before.Can someone please help me sort this out?

  2. #2
    Administrator
    Join Date
    Apr 2002
    Posts
    42,748

    Re: Rip Problems

    First step is to reset dBpoweramp to the default install settings:

    https://forum.dbpoweramp.com/showthr...rom-the-System

    Tick the option to reset the settings also.

    Then reinstall and try to rip a CD with the default settings, if that works try to reconfigure the secure settings.

    If this fails, restart your computer in safe mode with networking, and try to rip also:

    https://support.avira.com/hc/en-us/a...-in-Safe-Mode-

  3. #3

    Re: Rip Problems

    Thank you Spoon for advice, I tried that as I reinstalled the program but over the old one, I can't find my registrations codes just the invoice that I got when I made the purchase, so I don't want to unistall as I need up to pay agai, if I can't get new ones.
    I just ripped a CD that showed three tracks not ripped correct, I the re-ripped just the three and two
    was reported okey while one was not okey six frames was re-ripped. Trying the same track once gain now there was 1700 frames that needen to be re-ripped. That track was okey yesterday. Another track good yesterday was not okey today.

    I have removed both my JRiver and EAC to avoid interference from those software with poweramp. I ripped the same CD twice and the firs rip turned out pefect while the other ripp turned out not secure the last track I just quit ripping since the number of errors was to big. I refreshed the
    rescan for meta data between the ripps. I pasted the cuesheet reports below.

    Track 17: Ripped LBA 271155 to 287825 (3:42) in 0:18. Filename: C:\Users\malar\Desktop\Ny mapp\17. 17. Amokk - 666 - House Nation 1998-Unknown Artist.wav
    AccurateRip: Accurate (confidence 5) [Pass 1]
    CRC32: 708ED82E AccurateRip CRC: 3806AE42 (CRCv2) [DiscID: 018-002c733b-02506a34-11100412-17]
    AccurateRip Verified Confidence 5 [CRCv2 3806ae42]
    AccurateRip Verified Confidence 6 [CRCv1 6999f33b]
    AccurateRip Verified Confidence 4 [CRCv2 cd2ab380], Using Pressing Offset -194

    Track 18: Ripped LBA 287825 to 307540 (4:22) in 0:22. Filename: C:\Users\malar\Desktop\Ny mapp\18. 18. 747 - Kent - Rca Victor 1997-Unknown Artist.wav
    AccurateRip: Accurate (confidence 5) [Pass 1]
    CRC32: 92124BC6 AccurateRip CRC: 0180008A (CRCv2) [DiscID: 018-002c733b-02506a34-11100412-18]
    AccurateRip Verified Confidence 5 [CRCv2 180008a]
    AccurateRip Verified Confidence 6 [CRCv1 b44f05e1]
    AccurateRip Verified Confidence 4 [CRCv2 a6f06d8f], Using Pressing Offset -194

    Track 17: Ripped LBA 271155 to 287825 (3:42) in 0:20. Filename: C:\Users\malar\Desktop\Ny mapp (2)\17. Amokk-666.wav
    AccurateRip: Inaccurate (confidence 6) Insecure [Pass 1, Re-Rip 8 Frames]
    CRC32: 84F0E196 AccurateRip CRC: EBFE4CA3 (CRCv2) [DiscID: 018-002c733b-02506a34-11100412-17]

    Track 18: ERROR Ripping LBA 287825 to 307540 (4:22) in 8:21. Filename: C:\Users\malar\Desktop\Ny mapp (2)\18. 747-Kent.wav
    Last edited by Midnightmover; 05-31-2021 at 03:57 AM.

  4. #4
    dBpoweramp Guru
    Join Date
    Feb 2014
    Posts
    1,648

    Re: Rip Problems

    Re-Ripping is something that can happen if the condition of the CD is problematic or if the drive is worn. That is not an indicator for the condition of your software.


    Dat Ei

  5. #5
    Administrator
    Join Date
    Apr 2002
    Posts
    42,748

    Re: Rip Problems

    If you have C2 pointers enabled, try disabling them.

  6. #6

    Re: Rip Problems

    I manage to re install a fresh version of the poweramp. I will try to rip same CDs a couple of times to see if there was something wrong with the earlier install.
    The CD is in perfect condition, the drive is brand new and also this problem is with both my old and new drive and with a lot of CD's I don't blame the software I just asking for help if there is some tricks and hints to use.
    Last edited by Midnightmover; 05-31-2021 at 04:32 AM.

  7. #7
    dBpoweramp Guru
    Join Date
    Feb 2014
    Posts
    1,648

    Re: Rip Problems

    Quote Originally Posted by Midnightmover View Post
    The CD is in perfect condition,...
    The problem is that one can't judge this by sight. Some scratched CDs can be ripped accurately, some CDs without scratches have errors right from the production.


    Dat Ei

Posting Permissions

  • You may not post new threads
  • You may not post replies
  • You may not post attachments
  • You may not edit your posts
  •