Hello,

I have a cd that i bought in 2001 and i was trying to rip it.
But the last 2 tracks of the first CD gave me the error AccurateRip: Inaccurate (confidence 1) Secure [Pass 1].
I really wanted this backup so i bought another copy of the same album hoping this would rip OK.
But the new copy also showed the same error on the same 2 tracks.
I've used 2 different drives and 2 different discs but i get the same error.
The confidence is 1, i know confidence 2 is to be trusted, but does this mean i have a perfect rip or not?
The person who submitted their logs could have a scratch on there cd right, so i would never get a perfect match.
Should i buy yet anoter copy of the album?
Below are the logs.
Thank you!

Old CD:
Code:
Information ripping to [CUE Single File Image], 'Track 1' to 'D:\Muziek\DEZE LOSSLESS\Various Artists\Now This Is Trance CD 1\01 Mauro Picotto - Komodo.IGNORE'
   Track 1:  Ripped LBA 0 to 14927 (3:19) in 0:17. Filename: D:\Muziek\DEZE LOSSLESS\Various Artists\Now This Is Trance CD 1\01 Mauro Picotto - Komodo.IGNORE
     AccurateRip: Accurate (confidence 1)     [Pass 1]
     CRC32: F449E0CD     AccurateRip CRC: 611D5540 (CRCv2)     [DiscID: 020-00369b60-0321fbda-1711cd14-1]
     AccurateRip Verified Confidence 1 [CRCv2 611d5540]
     AccurateRip Verified Confidence 1 [CRCv2 611d5540]
   
Information ripping to [CUE Single File Image], 'Track 2' to 'D:\Muziek\DEZE LOSSLESS\Various Artists\Now This Is Trance CD 1\02 Moon, The - Blow Up The Speakers.IGNORE'
   Track 2:  Ripped LBA 14927 to 30316 (3:25) in 0:10. Filename: D:\Muziek\DEZE LOSSLESS\Various Artists\Now This Is Trance CD 1\02 Moon, The - Blow Up The Speakers.IGNORE
     AccurateRip: Accurate (confidence 1)     [Pass 1]
     CRC32: 598F0DE3     AccurateRip CRC: 9EE2E27B (CRCv2)     [DiscID: 020-00369b60-0321fbda-1711cd14-2]
     AccurateRip Verified Confidence 1 [CRCv2 9ee2e27b]
     AccurateRip Verified Confidence 1 [CRCv2 9ee2e27b]
   
Information ripping to [CUE Single File Image], 'Track 3' to 'D:\Muziek\DEZE LOSSLESS\Various Artists\Now This Is Trance CD 1\03 Yahel - Devotion (Armin Mix).IGNORE'
   Track 3:  Ripped LBA 30316 to 48992 (4:09) in 0:11. Filename: D:\Muziek\DEZE LOSSLESS\Various Artists\Now This Is Trance CD 1\03 Yahel - Devotion (Armin Mix).IGNORE
     AccurateRip: Accurate (confidence 1)     [Pass 1]
     CRC32: 542FB6AD     AccurateRip CRC: 38569670 (CRCv2)     [DiscID: 020-00369b60-0321fbda-1711cd14-3]
     AccurateRip Verified Confidence 1 [CRCv2 38569670]
     AccurateRip Verified Confidence 1 [CRCv2 38569670]
   
Information ripping to [CUE Single File Image], 'Track 4' to 'D:\Muziek\DEZE LOSSLESS\Various Artists\Now This Is Trance CD 1\04 Vincent De Moor - Fly Away.IGNORE'
   Track 4:  Ripped LBA 48992 to 68359 (4:18) in 0:10. Filename: D:\Muziek\DEZE LOSSLESS\Various Artists\Now This Is Trance CD 1\04 Vincent De Moor - Fly Away.IGNORE
     AccurateRip: Accurate (confidence 1)     [Pass 1]
     CRC32: 0AC40EAA     AccurateRip CRC: B3B8E9C4 (CRCv2)     [DiscID: 020-00369b60-0321fbda-1711cd14-4]
     AccurateRip Verified Confidence 1 [CRCv2 b3b8e9c4]
     AccurateRip Verified Confidence 1 [CRCv2 b3b8e9c4]
   
Information ripping to [CUE Single File Image], 'Track 5' to 'D:\Muziek\DEZE LOSSLESS\Various Artists\Now This Is Trance CD 1\05 Fragma - Everytime You Need Me (Pulsedriver Remix).IGNORE'
   Track 5:  Ripped LBA 68359 to 85449 (3:47) in 0:09. Filename: D:\Muziek\DEZE LOSSLESS\Various Artists\Now This Is Trance CD 1\05 Fragma - Everytime You Need Me (Pulsedriver Remix).IGNORE
     AccurateRip: Accurate (confidence 1)     [Pass 1]
     CRC32: 74B2A8D8     AccurateRip CRC: 42D53323 (CRCv2)     [DiscID: 020-00369b60-0321fbda-1711cd14-5]
     AccurateRip Verified Confidence 1 [CRCv2 42d53323]
     AccurateRip Verified Confidence 1 [CRCv2 42d53323]
   
Information ripping to [CUE Single File Image], 'Track 6' to 'D:\Muziek\DEZE LOSSLESS\Various Artists\Now This Is Trance CD 1\06 Riu Da Silva - Touch Me.IGNORE'
   Track 6:  Ripped LBA 85449 to 100926 (3:26) in 0:07. Filename: D:\Muziek\DEZE LOSSLESS\Various Artists\Now This Is Trance CD 1\06 Riu Da Silva - Touch Me.IGNORE
     AccurateRip: Accurate (confidence 1)     [Pass 1]
     CRC32: 3D5B69ED     AccurateRip CRC: 44EBDE2D (CRCv2)     [DiscID: 020-00369b60-0321fbda-1711cd14-6]
     AccurateRip Verified Confidence 1 [CRCv2 44ebde2d]
     AccurateRip Verified Confidence 1 [CRCv2 44ebde2d]
   
Information ripping to [CUE Single File Image], 'Track 7' to 'D:\Muziek\DEZE LOSSLESS\Various Artists\Now This Is Trance CD 1\07 Sister Bliss - Sister Sister.IGNORE'
   Track 7:  Ripped LBA 100926 to 118189 (3:50) in 0:08. Filename: D:\Muziek\DEZE LOSSLESS\Various Artists\Now This Is Trance CD 1\07 Sister Bliss - Sister Sister.IGNORE
     AccurateRip: Accurate (confidence 1)     [Pass 1]
     CRC32: DDA0B63F     AccurateRip CRC: BAF4DCB5 (CRCv2)     [DiscID: 020-00369b60-0321fbda-1711cd14-7]
     AccurateRip Verified Confidence 1 [CRCv2 baf4dcb5]
     AccurateRip Verified Confidence 1 [CRCv2 baf4dcb5]
   
Information ripping to [CUE Single File Image], 'Track 8' to 'D:\Muziek\DEZE LOSSLESS\Various Artists\Now This Is Trance CD 1\08 Mekka - Diamondback (Angeles Remix).IGNORE'
   Track 8:  Ripped LBA 118189 to 138223 (4:27) in 0:09. Filename: D:\Muziek\DEZE LOSSLESS\Various Artists\Now This Is Trance CD 1\08 Mekka - Diamondback (Angeles Remix).IGNORE
     AccurateRip: Accurate (confidence 1)     [Pass 1]
     CRC32: B1C2BD8F     AccurateRip CRC: 4C414F3B (CRCv2)     [DiscID: 020-00369b60-0321fbda-1711cd14-8]
     AccurateRip Verified Confidence 1 [CRCv2 4c414f3b]
     AccurateRip Verified Confidence 1 [CRCv2 4c414f3b]
   
Information ripping to [CUE Single File Image], 'Track 9' to 'D:\Muziek\DEZE LOSSLESS\Various Artists\Now This Is Trance CD 1\09 York - Reachers Of Civilization (Rank 1 Remix).IGNORE'
   Track 9:  Ripped LBA 138223 to 155048 (3:44) in 0:07. Filename: D:\Muziek\DEZE LOSSLESS\Various Artists\Now This Is Trance CD 1\09 York - Reachers Of Civilization (Rank 1 Remix).IGNORE
     AccurateRip: Accurate (confidence 1)     [Pass 1]
     CRC32: 780D67CD     AccurateRip CRC: 0E3177AD (CRCv2)     [DiscID: 020-00369b60-0321fbda-1711cd14-9]
     AccurateRip Verified Confidence 1 [CRCv2 e3177ad]
     AccurateRip Verified Confidence 1 [CRCv2 e3177ad]
   
Information ripping to [CUE Single File Image], 'Track 10' to 'D:\Muziek\DEZE LOSSLESS\Various Artists\Now This Is Trance CD 1\10 Rene Alblaze & Sam-Pling - November Rain.IGNORE'
   Track 10:  Ripped LBA 155048 to 172534 (3:53) in 0:07. Filename: D:\Muziek\DEZE LOSSLESS\Various Artists\Now This Is Trance CD 1\10 Rene Alblaze & Sam-Pling - November Rain.IGNORE
     AccurateRip: Accurate (confidence 1)     [Pass 1]
     CRC32: 813F94FC     AccurateRip CRC: 3E0E865B (CRCv2)     [DiscID: 020-00369b60-0321fbda-1711cd14-10]
     AccurateRip Verified Confidence 1 [CRCv2 3e0e865b]
     AccurateRip Verified Confidence 1 [CRCv2 3e0e865b]
   
Information ripping to [CUE Single File Image], 'Track 11' to 'D:\Muziek\DEZE LOSSLESS\Various Artists\Now This Is Trance CD 1\11 Ratty - Sunrise.IGNORE'
   Track 11:  Ripped LBA 172534 to 188730 (3:35) in 0:06. Filename: D:\Muziek\DEZE LOSSLESS\Various Artists\Now This Is Trance CD 1\11 Ratty - Sunrise.IGNORE
     AccurateRip: Accurate (confidence 1)     [Pass 1]
     CRC32: 3419BEEE     AccurateRip CRC: B797757B (CRCv2)     [DiscID: 020-00369b60-0321fbda-1711cd14-11]
     AccurateRip Verified Confidence 1 [CRCv2 b797757b]
     AccurateRip Verified Confidence 1 [CRCv2 b797757b]
   
Information ripping to [CUE Single File Image], 'Track 12' to 'D:\Muziek\DEZE LOSSLESS\Various Artists\Now This Is Trance CD 1\12 Delirium - Silence (DJ Tiesto remix).IGNORE'
   Track 12:  Ripped LBA 188730 to 209823 (4:41) in 0:08. Filename: D:\Muziek\DEZE LOSSLESS\Various Artists\Now This Is Trance CD 1\12 Delirium - Silence (DJ Tiesto remix).IGNORE
     AccurateRip: Accurate (confidence 1)     [Pass 1]
     CRC32: A4CC5D2B     AccurateRip CRC: 64D77B59 (CRCv2)     [DiscID: 020-00369b60-0321fbda-1711cd14-12]
     AccurateRip Verified Confidence 1 [CRCv2 64d77b59]
     AccurateRip Verified Confidence 1 [CRCv2 64d77b59]
   
Information ripping to [CUE Single File Image], 'Track 13' to 'D:\Muziek\DEZE LOSSLESS\Various Artists\Now This Is Trance CD 1\13 Storm - Storm Animal.IGNORE'
   Track 13:  Ripped LBA 209823 to 221618 (2:37) in 0:04. Filename: D:\Muziek\DEZE LOSSLESS\Various Artists\Now This Is Trance CD 1\13 Storm - Storm Animal.IGNORE
     AccurateRip: Accurate (confidence 1)     [Pass 1]
     CRC32: 9BF15A35     AccurateRip CRC: CF0E8703 (CRCv2)     [DiscID: 020-00369b60-0321fbda-1711cd14-13]
     AccurateRip Verified Confidence 1 [CRCv2 cf0e8703]
     AccurateRip Verified Confidence 1 [CRCv2 cf0e8703]
   
Information ripping to [CUE Single File Image], 'Track 14' to 'D:\Muziek\DEZE LOSSLESS\Various Artists\Now This Is Trance CD 1\14 E-MP-hasis - Emphatize.IGNORE'
   Track 14:  Ripped LBA 221618 to 236555 (3:19) in 0:05. Filename: D:\Muziek\DEZE LOSSLESS\Various Artists\Now This Is Trance CD 1\14 E-MP-hasis - Emphatize.IGNORE
     AccurateRip: Accurate (confidence 1)     [Pass 1]
     CRC32: 35DE4D6D     AccurateRip CRC: 10FC5793 (CRCv2)     [DiscID: 020-00369b60-0321fbda-1711cd14-14]
     AccurateRip Verified Confidence 1 [CRCv2 10fc5793]
     AccurateRip Verified Confidence 1 [CRCv2 10fc5793]
   
Information ripping to [CUE Single File Image], 'Track 15' to 'D:\Muziek\DEZE LOSSLESS\Various Artists\Now This Is Trance CD 1\15 Three Drives - Sunset On Ibiza.IGNORE'
   Track 15:  Ripped LBA 236555 to 255258 (4:09) in 0:06. Filename: D:\Muziek\DEZE LOSSLESS\Various Artists\Now This Is Trance CD 1\15 Three Drives - Sunset On Ibiza.IGNORE
     AccurateRip: Accurate (confidence 1)     [Pass 1]
     CRC32: EC2658E6     AccurateRip CRC: 2B33D242 (CRCv2)     [DiscID: 020-00369b60-0321fbda-1711cd14-15]
     AccurateRip Verified Confidence 1 [CRCv2 2b33d242]
     AccurateRip Verified Confidence 1 [CRCv2 2b33d242]
   
Information ripping to [CUE Single File Image], 'Track 16' to 'D:\Muziek\DEZE LOSSLESS\Various Artists\Now This Is Trance CD 1\16 DJ Ittybitty vs. DJ Stabak - Sunrise (Club Mix).IGNORE'
   Track 16:  Ripped LBA 255258 to 271472 (3:36) in 0:05. Filename: D:\Muziek\DEZE LOSSLESS\Various Artists\Now This Is Trance CD 1\16 DJ Ittybitty vs. DJ Stabak - Sunrise (Club Mix).IGNORE
     AccurateRip: Accurate (confidence 1)     [Pass 1]
     CRC32: F6BFBFC9     AccurateRip CRC: FE1AE20C (CRCv2)     [DiscID: 020-00369b60-0321fbda-1711cd14-16]
     AccurateRip Verified Confidence 1 [CRCv2 fe1ae20c]
     AccurateRip Verified Confidence 1 [CRCv2 fe1ae20c]
   
Information ripping to [CUE Single File Image], 'Track 17' to 'D:\Muziek\DEZE LOSSLESS\Various Artists\Now This Is Trance CD 1\17 Alpha Breed - Alien Arrival.IGNORE'
   Track 17:  Ripped LBA 271472 to 291396 (4:25) in 0:06. Filename: D:\Muziek\DEZE LOSSLESS\Various Artists\Now This Is Trance CD 1\17 Alpha Breed - Alien Arrival.IGNORE
     AccurateRip: Accurate (confidence 1)     [Pass 1]
     CRC32: 99119BA1     AccurateRip CRC: 3798A799 (CRCv2)     [DiscID: 020-00369b60-0321fbda-1711cd14-17]
     AccurateRip Verified Confidence 1 [CRCv2 3798a799]
     AccurateRip Verified Confidence 1 [CRCv2 3798a799]
   
Information ripping to [CUE Single File Image], 'Track 18' to 'D:\Muziek\DEZE LOSSLESS\Various Artists\Now This Is Trance CD 1\18 Marco V. - In Charge.IGNORE'
   Track 18:  Ripped LBA 291396 to 304439 (2:53) in 0:04. Filename: D:\Muziek\DEZE LOSSLESS\Various Artists\Now This Is Trance CD 1\18 Marco V. - In Charge.IGNORE
     AccurateRip: Accurate (confidence 1)     [Pass 1]
     CRC32: 3A231B03     AccurateRip CRC: 770861D8 (CRCv2)     [DiscID: 020-00369b60-0321fbda-1711cd14-18]
     AccurateRip Verified Confidence 1 [CRCv2 770861d8]
     AccurateRip Verified Confidence 1 [CRCv2 770861d8]
   
Information ripping to [CUE Single File Image], 'Track 19' to 'D:\Muziek\DEZE LOSSLESS\Various Artists\Now This Is Trance CD 1\19 Warp Brothers - We Will Survive.IGNORE'
   Track 19:  Ripped LBA 304439 to 324648 (4:29) in 0:06. Filename: D:\Muziek\DEZE LOSSLESS\Various Artists\Now This Is Trance CD 1\19 Warp Brothers - We Will Survive.IGNORE
     AccurateRip: Inaccurate (confidence 1)   Secure  [Pass 1]
     CRC32: 95714602     AccurateRip CRC: 92648942 (CRCv2)     [DiscID: 020-00369b60-0321fbda-1711cd14-19]
   
Information ripping to [CUE Single File Image], 'Track 20' to 'D:\Muziek\DEZE LOSSLESS\Various Artists\Now This Is Trance CD 1\20 Marc Et Claude - Loving You (Ratty Remix).IGNORE'
   Track 20:  Ripped LBA 324648 to 341818 (3:48) in 0:05. Filename: D:\Muziek\DEZE LOSSLESS\Various Artists\Now This Is Trance CD 1\20 Marc Et Claude - Loving You (Ratty Remix).IGNORE
     AccurateRip: Inaccurate (confidence 1)   Secure  [Pass 1]
     CRC32: 606F0A35     AccurateRip CRC: BEC2F22D (CRCv2)     [DiscID: 020-00369b60-0321fbda-1711cd14-20]
New CD:
Code:
Information ripping to [CUE Single File Image], 'Track 1' to 'D:\Muziek\DEZE LOSSLESS\Various Artists\Now This Is Trance CD 1\01 Mauro Picotto - Komodo.IGNORE'
   Track 1:  Ripped LBA 0 to 14927 (3:19) in 0:17. Filename: D:\Muziek\DEZE LOSSLESS\Various Artists\Now This Is Trance CD 1\01 Mauro Picotto - Komodo.IGNORE
     AccurateRip: Accurate (confidence 1)     [Pass 1]
     CRC32: F449E0CD     AccurateRip CRC: 611D5540 (CRCv2)     [DiscID: 020-00369b60-0321fbda-1711cd14-1]
     AccurateRip Verified Confidence 1 [CRCv2 611d5540]
     AccurateRip Verified Confidence 1 [CRCv2 611d5540]
   
Information ripping to [CUE Single File Image], 'Track 2' to 'D:\Muziek\DEZE LOSSLESS\Various Artists\Now This Is Trance CD 1\02 Moon, The - Blow Up The Speakers.IGNORE'
   Track 2:  Ripped LBA 14927 to 30316 (3:25) in 0:10. Filename: D:\Muziek\DEZE LOSSLESS\Various Artists\Now This Is Trance CD 1\02 Moon, The - Blow Up The Speakers.IGNORE
     AccurateRip: Accurate (confidence 1)     [Pass 1]
     CRC32: 598F0DE3     AccurateRip CRC: 9EE2E27B (CRCv2)     [DiscID: 020-00369b60-0321fbda-1711cd14-2]
     AccurateRip Verified Confidence 1 [CRCv2 9ee2e27b]
     AccurateRip Verified Confidence 1 [CRCv2 9ee2e27b]
   
Information ripping to [CUE Single File Image], 'Track 3' to 'D:\Muziek\DEZE LOSSLESS\Various Artists\Now This Is Trance CD 1\03 Yahel - Devotion (Armin Mix).IGNORE'
   Track 3:  Ripped LBA 30316 to 48992 (4:09) in 0:11. Filename: D:\Muziek\DEZE LOSSLESS\Various Artists\Now This Is Trance CD 1\03 Yahel - Devotion (Armin Mix).IGNORE
     AccurateRip: Accurate (confidence 1)     [Pass 1]
     CRC32: 542FB6AD     AccurateRip CRC: 38569670 (CRCv2)     [DiscID: 020-00369b60-0321fbda-1711cd14-3]
     AccurateRip Verified Confidence 1 [CRCv2 38569670]
     AccurateRip Verified Confidence 1 [CRCv2 38569670]
   
Information ripping to [CUE Single File Image], 'Track 4' to 'D:\Muziek\DEZE LOSSLESS\Various Artists\Now This Is Trance CD 1\04 Vincent De Moor - Fly Away.IGNORE'
   Track 4:  Ripped LBA 48992 to 68359 (4:18) in 0:10. Filename: D:\Muziek\DEZE LOSSLESS\Various Artists\Now This Is Trance CD 1\04 Vincent De Moor - Fly Away.IGNORE
     AccurateRip: Accurate (confidence 1)     [Pass 1]
     CRC32: 0AC40EAA     AccurateRip CRC: B3B8E9C4 (CRCv2)     [DiscID: 020-00369b60-0321fbda-1711cd14-4]
     AccurateRip Verified Confidence 1 [CRCv2 b3b8e9c4]
     AccurateRip Verified Confidence 1 [CRCv2 b3b8e9c4]
   
Information ripping to [CUE Single File Image], 'Track 5' to 'D:\Muziek\DEZE LOSSLESS\Various Artists\Now This Is Trance CD 1\05 Fragma - Everytime You Need Me (Pulsedriver Remix).IGNORE'
   Track 5:  Ripped LBA 68359 to 85449 (3:47) in 0:09. Filename: D:\Muziek\DEZE LOSSLESS\Various Artists\Now This Is Trance CD 1\05 Fragma - Everytime You Need Me (Pulsedriver Remix).IGNORE
     AccurateRip: Accurate (confidence 1)     [Pass 1]
     CRC32: 74B2A8D8     AccurateRip CRC: 42D53323 (CRCv2)     [DiscID: 020-00369b60-0321fbda-1711cd14-5]
     AccurateRip Verified Confidence 1 [CRCv2 42d53323]
     AccurateRip Verified Confidence 1 [CRCv2 42d53323]
   
Information ripping to [CUE Single File Image], 'Track 6' to 'D:\Muziek\DEZE LOSSLESS\Various Artists\Now This Is Trance CD 1\06 Riu Da Silva - Touch Me.IGNORE'
   Track 6:  Ripped LBA 85449 to 100926 (3:26) in 0:07. Filename: D:\Muziek\DEZE LOSSLESS\Various Artists\Now This Is Trance CD 1\06 Riu Da Silva - Touch Me.IGNORE
     AccurateRip: Accurate (confidence 1)     [Pass 1]
     CRC32: 3D5B69ED     AccurateRip CRC: 44EBDE2D (CRCv2)     [DiscID: 020-00369b60-0321fbda-1711cd14-6]
     AccurateRip Verified Confidence 1 [CRCv2 44ebde2d]
     AccurateRip Verified Confidence 1 [CRCv2 44ebde2d]
   
Information ripping to [CUE Single File Image], 'Track 7' to 'D:\Muziek\DEZE LOSSLESS\Various Artists\Now This Is Trance CD 1\07 Sister Bliss - Sister Sister.IGNORE'
   Track 7:  Ripped LBA 100926 to 118189 (3:50) in 0:08. Filename: D:\Muziek\DEZE LOSSLESS\Various Artists\Now This Is Trance CD 1\07 Sister Bliss - Sister Sister.IGNORE
     AccurateRip: Accurate (confidence 1)     [Pass 1]
     CRC32: DDA0B63F     AccurateRip CRC: BAF4DCB5 (CRCv2)     [DiscID: 020-00369b60-0321fbda-1711cd14-7]
     AccurateRip Verified Confidence 1 [CRCv2 baf4dcb5]
     AccurateRip Verified Confidence 1 [CRCv2 baf4dcb5]
   
Information ripping to [CUE Single File Image], 'Track 8' to 'D:\Muziek\DEZE LOSSLESS\Various Artists\Now This Is Trance CD 1\08 Mekka - Diamondback (Angeles Remix).IGNORE'
   Track 8:  Ripped LBA 118189 to 138223 (4:27) in 0:09. Filename: D:\Muziek\DEZE LOSSLESS\Various Artists\Now This Is Trance CD 1\08 Mekka - Diamondback (Angeles Remix).IGNORE
     AccurateRip: Accurate (confidence 1)     [Pass 1]
     CRC32: B1C2BD8F     AccurateRip CRC: 4C414F3B (CRCv2)     [DiscID: 020-00369b60-0321fbda-1711cd14-8]
     AccurateRip Verified Confidence 1 [CRCv2 4c414f3b]
     AccurateRip Verified Confidence 1 [CRCv2 4c414f3b]
   
Information ripping to [CUE Single File Image], 'Track 9' to 'D:\Muziek\DEZE LOSSLESS\Various Artists\Now This Is Trance CD 1\09 York - Reachers Of Civilization (Rank 1 Remix).IGNORE'
   Track 9:  Ripped LBA 138223 to 155048 (3:44) in 0:07. Filename: D:\Muziek\DEZE LOSSLESS\Various Artists\Now This Is Trance CD 1\09 York - Reachers Of Civilization (Rank 1 Remix).IGNORE
     AccurateRip: Accurate (confidence 1)     [Pass 1]
     CRC32: 780D67CD     AccurateRip CRC: 0E3177AD (CRCv2)     [DiscID: 020-00369b60-0321fbda-1711cd14-9]
     AccurateRip Verified Confidence 1 [CRCv2 e3177ad]
     AccurateRip Verified Confidence 1 [CRCv2 e3177ad]
   
Information ripping to [CUE Single File Image], 'Track 10' to 'D:\Muziek\DEZE LOSSLESS\Various Artists\Now This Is Trance CD 1\10 Rene Alblaze & Sam-Pling - November Rain.IGNORE'
   Track 10:  Ripped LBA 155048 to 172534 (3:53) in 0:07. Filename: D:\Muziek\DEZE LOSSLESS\Various Artists\Now This Is Trance CD 1\10 Rene Alblaze & Sam-Pling - November Rain.IGNORE
     AccurateRip: Accurate (confidence 1)     [Pass 1]
     CRC32: 813F94FC     AccurateRip CRC: 3E0E865B (CRCv2)     [DiscID: 020-00369b60-0321fbda-1711cd14-10]
     AccurateRip Verified Confidence 1 [CRCv2 3e0e865b]
     AccurateRip Verified Confidence 1 [CRCv2 3e0e865b]
   
Information ripping to [CUE Single File Image], 'Track 11' to 'D:\Muziek\DEZE LOSSLESS\Various Artists\Now This Is Trance CD 1\11 Ratty - Sunrise.IGNORE'
   Track 11:  Ripped LBA 172534 to 188730 (3:35) in 0:06. Filename: D:\Muziek\DEZE LOSSLESS\Various Artists\Now This Is Trance CD 1\11 Ratty - Sunrise.IGNORE
     AccurateRip: Accurate (confidence 1)     [Pass 1]
     CRC32: 3419BEEE     AccurateRip CRC: B797757B (CRCv2)     [DiscID: 020-00369b60-0321fbda-1711cd14-11]
     AccurateRip Verified Confidence 1 [CRCv2 b797757b]
     AccurateRip Verified Confidence 1 [CRCv2 b797757b]
   
Information ripping to [CUE Single File Image], 'Track 12' to 'D:\Muziek\DEZE LOSSLESS\Various Artists\Now This Is Trance CD 1\12 Delirium - Silence (DJ Tiesto remix).IGNORE'
   Track 12:  Ripped LBA 188730 to 209823 (4:41) in 0:08. Filename: D:\Muziek\DEZE LOSSLESS\Various Artists\Now This Is Trance CD 1\12 Delirium - Silence (DJ Tiesto remix).IGNORE
     AccurateRip: Accurate (confidence 1)     [Pass 1]
     CRC32: A4CC5D2B     AccurateRip CRC: 64D77B59 (CRCv2)     [DiscID: 020-00369b60-0321fbda-1711cd14-12]
     AccurateRip Verified Confidence 1 [CRCv2 64d77b59]
     AccurateRip Verified Confidence 1 [CRCv2 64d77b59]
   
Information ripping to [CUE Single File Image], 'Track 13' to 'D:\Muziek\DEZE LOSSLESS\Various Artists\Now This Is Trance CD 1\13 Storm - Storm Animal.IGNORE'
   Track 13:  Ripped LBA 209823 to 221618 (2:37) in 0:04. Filename: D:\Muziek\DEZE LOSSLESS\Various Artists\Now This Is Trance CD 1\13 Storm - Storm Animal.IGNORE
     AccurateRip: Accurate (confidence 1)     [Pass 1]
     CRC32: 9BF15A35     AccurateRip CRC: CF0E8703 (CRCv2)     [DiscID: 020-00369b60-0321fbda-1711cd14-13]
     AccurateRip Verified Confidence 1 [CRCv2 cf0e8703]
     AccurateRip Verified Confidence 1 [CRCv2 cf0e8703]
   
Information ripping to [CUE Single File Image], 'Track 14' to 'D:\Muziek\DEZE LOSSLESS\Various Artists\Now This Is Trance CD 1\14 E-MP-hasis - Emphatize.IGNORE'
   Track 14:  Ripped LBA 221618 to 236555 (3:19) in 0:05. Filename: D:\Muziek\DEZE LOSSLESS\Various Artists\Now This Is Trance CD 1\14 E-MP-hasis - Emphatize.IGNORE
     AccurateRip: Accurate (confidence 1)     [Pass 1]
     CRC32: 35DE4D6D     AccurateRip CRC: 10FC5793 (CRCv2)     [DiscID: 020-00369b60-0321fbda-1711cd14-14]
     AccurateRip Verified Confidence 1 [CRCv2 10fc5793]
     AccurateRip Verified Confidence 1 [CRCv2 10fc5793]
   
Information ripping to [CUE Single File Image], 'Track 15' to 'D:\Muziek\DEZE LOSSLESS\Various Artists\Now This Is Trance CD 1\15 Three Drives - Sunset On Ibiza.IGNORE'
   Track 15:  Ripped LBA 236555 to 255258 (4:09) in 0:06. Filename: D:\Muziek\DEZE LOSSLESS\Various Artists\Now This Is Trance CD 1\15 Three Drives - Sunset On Ibiza.IGNORE
     AccurateRip: Accurate (confidence 1)     [Pass 1]
     CRC32: EC2658E6     AccurateRip CRC: 2B33D242 (CRCv2)     [DiscID: 020-00369b60-0321fbda-1711cd14-15]
     AccurateRip Verified Confidence 1 [CRCv2 2b33d242]
     AccurateRip Verified Confidence 1 [CRCv2 2b33d242]
   
Information ripping to [CUE Single File Image], 'Track 16' to 'D:\Muziek\DEZE LOSSLESS\Various Artists\Now This Is Trance CD 1\16 DJ Ittybitty vs. DJ Stabak - Sunrise (Club Mix).IGNORE'
   Track 16:  Ripped LBA 255258 to 271472 (3:36) in 0:05. Filename: D:\Muziek\DEZE LOSSLESS\Various Artists\Now This Is Trance CD 1\16 DJ Ittybitty vs. DJ Stabak - Sunrise (Club Mix).IGNORE
     AccurateRip: Accurate (confidence 1)     [Pass 1]
     CRC32: F6BFBFC9     AccurateRip CRC: FE1AE20C (CRCv2)     [DiscID: 020-00369b60-0321fbda-1711cd14-16]
     AccurateRip Verified Confidence 1 [CRCv2 fe1ae20c]
     AccurateRip Verified Confidence 1 [CRCv2 fe1ae20c]
   
Information ripping to [CUE Single File Image], 'Track 17' to 'D:\Muziek\DEZE LOSSLESS\Various Artists\Now This Is Trance CD 1\17 Alpha Breed - Alien Arrival.IGNORE'
   Track 17:  Ripped LBA 271472 to 291396 (4:25) in 0:06. Filename: D:\Muziek\DEZE LOSSLESS\Various Artists\Now This Is Trance CD 1\17 Alpha Breed - Alien Arrival.IGNORE
     AccurateRip: Accurate (confidence 1)     [Pass 1]
     CRC32: 99119BA1     AccurateRip CRC: 3798A799 (CRCv2)     [DiscID: 020-00369b60-0321fbda-1711cd14-17]
     AccurateRip Verified Confidence 1 [CRCv2 3798a799]
     AccurateRip Verified Confidence 1 [CRCv2 3798a799]
   
Information ripping to [CUE Single File Image], 'Track 18' to 'D:\Muziek\DEZE LOSSLESS\Various Artists\Now This Is Trance CD 1\18 Marco V. - In Charge.IGNORE'
   Track 18:  Ripped LBA 291396 to 304439 (2:53) in 0:04. Filename: D:\Muziek\DEZE LOSSLESS\Various Artists\Now This Is Trance CD 1\18 Marco V. - In Charge.IGNORE
     AccurateRip: Accurate (confidence 1)     [Pass 1]
     CRC32: 3A231B03     AccurateRip CRC: 770861D8 (CRCv2)     [DiscID: 020-00369b60-0321fbda-1711cd14-18]
     AccurateRip Verified Confidence 1 [CRCv2 770861d8]
     AccurateRip Verified Confidence 1 [CRCv2 770861d8]
   
Information ripping to [CUE Single File Image], 'Track 19' to 'D:\Muziek\DEZE LOSSLESS\Various Artists\Now This Is Trance CD 1\19 Warp Brothers - We Will Survive.IGNORE'
   Track 19:  Ripped LBA 304439 to 324648 (4:29) in 0:06. Filename: D:\Muziek\DEZE LOSSLESS\Various Artists\Now This Is Trance CD 1\19 Warp Brothers - We Will Survive.IGNORE
     AccurateRip: Inaccurate (confidence 1)   Secure  [Pass 1]
     CRC32: 95714602     AccurateRip CRC: 92648942 (CRCv2)     [DiscID: 020-00369b60-0321fbda-1711cd14-19]
   
Information ripping to [CUE Single File Image], 'Track 20' to 'D:\Muziek\DEZE LOSSLESS\Various Artists\Now This Is Trance CD 1\20 Marc Et Claude - Loving You (Ratty Remix).IGNORE'
   Track 20:  Ripped LBA 324648 to 341818 (3:48) in 0:05. Filename: D:\Muziek\DEZE LOSSLESS\Various Artists\Now This Is Trance CD 1\20 Marc Et Claude - Loving You (Ratty Remix).IGNORE
     AccurateRip: Inaccurate (confidence 1)   Secure  [Pass 1]
     CRC32: 606F0A35     AccurateRip CRC: BEC2F22D (CRCv2)     [DiscID: 020-00369b60-0321fbda-1711cd14-20]