I've had good luck in the past but now it won't even try. I put in a CD and it reads the disc and displays the song names and artwork correctly. But when I hit the rip button, it spools up and begins to read then just gives me errors all the way down the song list. I then upgraded to the latest version R17.3 with no luck. Then I updated my Windows 10 to the latest version with no luck. After all this, I uninstalled the entire dbpoweramp suite and reinstalled it, rebooted the pc, and got the same results. The failure happened before I did any software or Windows upgrades. Any ideas?



Error ripping to Wave, 'Track 1' to 'H:\WAV\Rock WAV\Paul McCartney\McCartney III\01 Paul McCartney - Long Tailed Winter Bird.wav'
Error unable to open File 'H:\WAV\Rock WAV\Paul McCartney\McCartney III\01 Paul McCartney - Long Tailed Winter Bird.wav' for writing. [clEncoder_WAVE::BeginConversion]

Error ripping to Wave, 'Track 2' to 'H:\WAV\Rock WAV\Paul McCartney\McCartney III\02 Paul McCartney - Find My Way.wav'
Error unable to open File 'H:\WAV\Rock WAV\Paul McCartney\McCartney III\02 Paul McCartney - Find My Way.wav' for writing. [clEncoder_WAVE::BeginConversion]

Error ripping to Wave, 'Track 3' to 'H:\WAV\Rock WAV\Paul McCartney\McCartney III\03 Paul McCartney - Pretty Boys.wav'
Error unable to open File 'H:\WAV\Rock WAV\Paul McCartney\McCartney III\03 Paul McCartney - Pretty Boys.wav' for writing. [clEncoder_WAVE::BeginConversion]

Error ripping to Wave, 'Track 4' to 'H:\WAV\Rock WAV\Paul McCartney\McCartney III\04 Paul McCartney - Women And Wives.wav'
Error unable to open File 'H:\WAV\Rock WAV\Paul McCartney\McCartney III\04 Paul McCartney - Women And Wives.wav' for writing. [clEncoder_WAVE::BeginConversion]

Error ripping to Wave, 'Track 5' to 'H:\WAV\Rock WAV\Paul McCartney\McCartney III\05 Paul McCartney - Lavatory Lil.wav'
Error unable to open File 'H:\WAV\Rock WAV\Paul McCartney\McCartney III\05 Paul McCartney - Lavatory Lil.wav' for writing. [clEncoder_WAVE::BeginConversion]

Error ripping to Wave, 'Track 6' to 'H:\WAV\Rock WAV\Paul McCartney\McCartney III\06 Paul McCartney - Deep Deep Feeling.wav'
Error unable to open File 'H:\WAV\Rock WAV\Paul McCartney\McCartney III\06 Paul McCartney - Deep Deep Feeling.wav' for writing. [clEncoder_WAVE::BeginConversion]

Error ripping to Wave, 'Track 7' to 'H:\WAV\Rock WAV\Paul McCartney\McCartney III\07 Paul McCartney - Slidin'.wav'
Error unable to open File 'H:\WAV\Rock WAV\Paul McCartney\McCartney III\07 Paul McCartney - Slidin'.wav' for writing. [clEncoder_WAVE::BeginConversion]

Error ripping to Wave, 'Track 8' to 'H:\WAV\Rock WAV\Paul McCartney\McCartney III\08 Paul McCartney - The Kiss Of Venus.wav'
Error unable to open File 'H:\WAV\Rock WAV\Paul McCartney\McCartney III\08 Paul McCartney - The Kiss Of Venus.wav' for writing. [clEncoder_WAVE::BeginConversion]

Error ripping to Wave, 'Track 9' to 'H:\WAV\Rock WAV\Paul McCartney\McCartney III\09 Paul McCartney - Seize The Day.wav'
Error unable to open File 'H:\WAV\Rock WAV\Paul McCartney\McCartney III\09 Paul McCartney - Seize The Day.wav' for writing. [clEncoder_WAVE::BeginConversion]

Error ripping to Wave, 'Track 10' to 'H:\WAV\Rock WAV\Paul McCartney\McCartney III\10 Paul McCartney - Deep Down.wav'
Error unable to open File 'H:\WAV\Rock WAV\Paul McCartney\McCartney III\10 Paul McCartney - Deep Down.wav' for writing. [clEncoder_WAVE::BeginConversion]

Error ripping to Wave, 'Track 11' to 'H:\WAV\Rock WAV\Paul McCartney\McCartney III\11 Paul McCartney - Winter Bird - When Winter Comes.wav'
Error unable to open File 'H:\WAV\Rock WAV\Paul McCartney\McCartney III\11 Paul McCartney - Winter Bird - When Winter Comes.wav' for writing. [clEncoder_WAVE::BeginConversion]



Information ripping to Wave, 'Track 1' to 'H:\WAV\Rock WAV\Paul McCartney\McCartney III\01 Paul McCartney - Long Tailed Winter Bird.wav'
Track 1: Ripped LBA 0 to 23744 (5:16) in 0:00. Filename: H:\WAV\Rock WAV\Paul McCartney\McCartney III\01 Paul McCartney - Long Tailed Winter Bird.wav
[Pass 1]
CRC32: 3FF400D1 AccurateRip CRC: 00000000 [DiscID: 011-0012762e-009fbd5e-a00a800b-1]

Information ripping to Wave, 'Track 2' to 'H:\WAV\Rock WAV\Paul McCartney\McCartney III\02 Paul McCartney - Find My Way.wav'
Track 2: Ripped LBA 23744 to 41350 (3:54) in 0:00. Filename: H:\WAV\Rock WAV\Paul McCartney\McCartney III\02 Paul McCartney - Find My Way.wav
[Pass 1]
CRC32: DD7F05E7 AccurateRip CRC: 00000000 [DiscID: 011-0012762e-009fbd5e-a00a800b-2]

Information ripping to Wave, 'Track 3' to 'H:\WAV\Rock WAV\Paul McCartney\McCartney III\03 Paul McCartney - Pretty Boys.wav'
Track 3: Ripped LBA 41350 to 54908 (3:00) in 0:00. Filename: H:\WAV\Rock WAV\Paul McCartney\McCartney III\03 Paul McCartney - Pretty Boys.wav
[Pass 1]
CRC32: DEE174E7 AccurateRip CRC: 00000000 [DiscID: 011-0012762e-009fbd5e-a00a800b-3]

Information ripping to Wave, 'Track 4' to 'H:\WAV\Rock WAV\Paul McCartney\McCartney III\04 Paul McCartney - Women And Wives.wav'
Track 4: Ripped LBA 54908 to 67838 (2:52) in 0:00. Filename: H:\WAV\Rock WAV\Paul McCartney\McCartney III\04 Paul McCartney - Women And Wives.wav
[Pass 1]
CRC32: 640530FB AccurateRip CRC: 00000000 [DiscID: 011-0012762e-009fbd5e-a00a800b-4]

Information ripping to Wave, 'Track 5' to 'H:\WAV\Rock WAV\Paul McCartney\McCartney III\05 Paul McCartney - Lavatory Lil.wav'
Track 5: Ripped LBA 67838 to 78538 (2:22) in 0:00. Filename: H:\WAV\Rock WAV\Paul McCartney\McCartney III\05 Paul McCartney - Lavatory Lil.wav
[Pass 1]
CRC32: 5A9CFDBC AccurateRip CRC: 00000000 [DiscID: 011-0012762e-009fbd5e-a00a800b-5]

Information ripping to Wave, 'Track 6' to 'H:\WAV\Rock WAV\Paul McCartney\McCartney III\06 Paul McCartney - Deep Deep Feeling.wav'
Track 6: Ripped LBA 78538 to 116478 (8:25) in 0:00. Filename: H:\WAV\Rock WAV\Paul McCartney\McCartney III\06 Paul McCartney - Deep Deep Feeling.wav
[Pass 1]
CRC32: 1CA5E060 AccurateRip CRC: 00000000 [DiscID: 011-0012762e-009fbd5e-a00a800b-6]

Information ripping to Wave, 'Track 7' to 'H:\WAV\Rock WAV\Paul McCartney\McCartney III\07 Paul McCartney - Slidin'.wav'
Track 7: Ripped LBA 116478 to 131730 (3:23) in 0:00. Filename: H:\WAV\Rock WAV\Paul McCartney\McCartney III\07 Paul McCartney - Slidin'.wav
[Pass 1]
CRC32: E992099D AccurateRip CRC: 00000000 [DiscID: 011-0012762e-009fbd5e-a00a800b-7]

Information ripping to Wave, 'Track 8' to 'H:\WAV\Rock WAV\Paul McCartney\McCartney III\08 Paul McCartney - The Kiss Of Venus.wav'
Track 8: Ripped LBA 131730 to 145715 (3:06) in 0:00. Filename: H:\WAV\Rock WAV\Paul McCartney\McCartney III\08 Paul McCartney - The Kiss Of Venus.wav
[Pass 1]
CRC32: B326043A AccurateRip CRC: 00000000 [DiscID: 011-0012762e-009fbd5e-a00a800b-8]

Information ripping to Wave, 'Track 9' to 'H:\WAV\Rock WAV\Paul McCartney\McCartney III\09 Paul McCartney - Seize The Day.wav'
Track 9: Ripped LBA 145715 to 160753 (3:20) in 0:00. Filename: H:\WAV\Rock WAV\Paul McCartney\McCartney III\09 Paul McCartney - Seize The Day.wav
[Pass 1]
CRC32: 43E1A14D AccurateRip CRC: 00000000 [DiscID: 011-0012762e-009fbd5e-a00a800b-9]

Information ripping to Wave, 'Track 10' to 'H:\WAV\Rock WAV\Paul McCartney\McCartney III\10 Paul McCartney - Deep Down.wav'
Track 10: Ripped LBA 160753 to 187214 (5:52) in 0:00. Filename: H:\WAV\Rock WAV\Paul McCartney\McCartney III\10 Paul McCartney - Deep Down.wav
[Pass 1]
CRC32: C71BB890 AccurateRip CRC: 00000000 [DiscID: 011-0012762e-009fbd5e-a00a800b-10]

Information ripping to Wave, 'Track 11' to 'H:\WAV\Rock WAV\Paul McCartney\McCartney III\11 Paul McCartney - Winter Bird - When Winter Comes.wav'
Track 11: Ripped LBA 187214 to 201634 (3:12) in 0:00. Filename: H:\WAV\Rock WAV\Paul McCartney\McCartney III\11 Paul McCartney - Winter Bird - When Winter Comes.wav
[Pass 1]
CRC32: D806A97A AccurateRip CRC: 00000000 [DiscID: 011-0012762e-009fbd5e-a00a800b-11]