title
Products            Buy            Support Forum            Professional            About            Codec Central
 
Results 1 to 4 of 4

Thread: Failing Rip - Help?

  1. #1

    Join Date
    Feb 2020
    Location
    Portland, OR
    Posts
    16

    Failing Rip - Help?

    I'm using Mac Release 17.4 (1)
    I recently upgraded too.
    I've tried a few times now and keep encountering the same failure. It's basicly the same failure for every track on the CD

    Here's the Error report:
    Information converting to FLAC, 'Track 1' to '/Users/kenheyman/Music/dbPoweramp Rips/Spirit/Clear/01 Clear Spirit - Dark Eyed Woman.flac'
    ** Aborted: Have to ReRip 14047 Frames, Re-Rip Limit Set to 100 Frames
    Track 1: Ripped LBA 0 to 14310 (3:10) in 1:42. Filename: /Users/kenheyman/Music/dbPoweramp Rips/Spirit/Clear/01 Clear Spirit - Dark Eyed Woman.flac
    Insecure [Pass 1, Ultra 1 to 2, Re-Rip 14047 Frames]
    Insecure [Pass 1, Ultra 1 to 2, Re-Rip 14047 Frames]
    ** Aborted: Have to ReRip 14047 Frames, Re-Rip Limit Set to 100 Frames
    Audio File Passed Verification
    Information converting to FLAC, 'Track 2' to '/Users/kenheyman/Music/dbPoweramp Rips/Spirit/Clear/02 Clear Spirit - Apple Orchard.flac'
    ** Aborted: Have to ReRip 18500 Frames, Re-Rip Limit Set to 100 Frames
    Track 2: Ripped LBA 14310 to 32962 (4:08) in 2:02. Filename: /Users/kenheyman/Music/dbPoweramp Rips/Spirit/Clear/02 Clear Spirit - Apple Orchard.flac
    Insecure [Pass 1, Ultra 1 to 2, Re-Rip 18500 Frames]
    Insecure [Pass 1, Ultra 1 to 2, Re-Rip 18500 Frames]
    ** Aborted: Have to ReRip 18500 Frames, Re-Rip Limit Set to 100 Frames
    Information converting to FLAC, 'Track 3' to '/Users/kenheyman/Music/dbPoweramp Rips/Spirit/Clear/03 Clear Spirit - So Little Time to Fly.flac'
    ** Aborted: Have to ReRip 12636 Frames, Re-Rip Limit Set to 100 Frames
    Track 3: Ripped LBA 32962 to 45810 (2:51) in 0:52. Filename: /Users/kenheyman/Music/dbPoweramp Rips/Spirit/Clear/03 Clear Spirit - So Little Time to Fly.flac
    Insecure [Pass 1, Ultra 1 to 1, Re-Rip 12636 Frames]
    Insecure [Pass 1, Ultra 1 to 1, Re-Rip 12636 Frames]
    ** Aborted: Have to ReRip 12636 Frames, Re-Rip Limit Set to 100 Frames
    Audio File Passed Verification
    Information converting to FLAC, 'Track 4' to '/Users/kenheyman/Music/dbPoweramp Rips/Spirit/Clear/04 Clear Spirit - Ground Hog.flac'
    ** Aborted: Have to ReRip 13798 Frames, Re-Rip Limit Set to 100 Frames
    Track 4: Ripped LBA 45810 to 59817 (3:06) in 0:54. Filename: /Users/kenheyman/Music/dbPoweramp Rips/Spirit/Clear/04 Clear

    NOTE: I have not pasted the log for all the tracks since it is essentially redundant.
    ~ BTW: XLD ripped the same CD without any problem
    Last edited by Bambooken; 03-21-2021 at 05:16 PM.

  2. #2
    Administrator
    Join Date
    Apr 2002
    Posts
    42,614

    Re: Failing Rip - Help?

    Disable c2 error pointer if they are enabled.

  3. #3

    Join Date
    Feb 2020
    Location
    Portland, OR
    Posts
    16

    Re: Failing Rip - Help?

    I tried deselecting the C2 error (Interpolate C2 Errors) and I'm still getting the same errors.
    Please advise.

    Track 1: Ripped LBA 0 to 14310 (3:10) in 1:42. Filename: /Users/kenheyman/Music/dbPoweramp Rips/Spirit/Clear/01 Clear Spirit - Dark Eyed Woman.flac
    Insecure [Pass 1, Ultra 1 to 2, Re-Rip 14047 Frames]
    Insecure [Pass 1, Ultra 1 to 2, Re-Rip 14047 Frames]
    ** Aborted: Have to ReRip 14047 Frames, Re-Rip Limit Set to 100 Frames
    Last edited by Bambooken; 03-22-2021 at 10:42 AM.

  4. #4

    Join Date
    Feb 2020
    Location
    Portland, OR
    Posts
    16

    Re: Failing Rip - Help?

    I did a complete uninstall and re-installed the latest version.
    Everything is working now.
    The issue is resolved
    Last edited by Bambooken; 03-22-2021 at 01:13 PM.

Posting Permissions

  • You may not post new threads
  • You may not post replies
  • You may not post attachments
  • You may not edit your posts
  •