title
Products            Buy            Support Forum            Professional            About            Codec Central
 
Results 1 to 2 of 2

Thread: inaccurate but secure (track *9)

  1. #1

    inaccurate but secure (track *9)

    Track *9 sounds OK but I'm not sure if it has errors or not. Can you tell from the log? It says secure...

    Code:
    dBpoweramp Release 17.1 Digital Audio Extraction Log from Sunday, September 6, 2020 16:16
    
    Drive & Settings
    ----------------
    
    Ripping with drive 'E:   [HL-DT-ST - BD-RE  BH12NS30 ]',  Drive offset: 667,  Overread Lead-in/out: No
    AccurateRip: Active,  Using C2: No,  Cache: 1024 KB,  FUA Cache Invalidate: No
    Pass 1 Drive Speed: Max,  Pass 2 Drive Speed: Max
    Ultra::  Vary Drive Speed: Yes,  Min Passes: 2,  Max Passes: 4,  Finish After Clean Passes: 2
    Bad Sector Re-rip::  Drive Speed: Max,  Maximum Re-reads: 34
    
    Encoder: Apple Lossless -v
    DSP Effects / Actions: -dspeffect1="Audio CD - De-emphasis=" -dspeffect2="Move Destination File on Error= -root={qt}[origpath]{qt} -naming={qt}error\[origfilename]{qt}"
    
    Extraction Log
    --------------
    
    Track 1:  Ripped LBA 0 to 9672 (2:08) in 0:15. Filename: C:\NEWRIPS\Mills Brothers, The\22 Great Hits\01 - Glow Worm.m4a
      AccurateRip: Accurate (confidence 4)     [Pass 1]
      CRC32: 95242250     AccurateRip CRC: E65CF993 (CRCv2)     [DiscID: 022-002e6d89-02ec5339-3f0dc016-1]
      AccurateRip Verified Confidence 4 [CRCv2 e65cf993]
      AccurateRip Verified Confidence 4 [CRCv2 cbf9b16e], Using Pressing Offset -1063
      AccurateRip Verified Confidence 4 [CRCv1 9647c24a], Using Pressing Offset -1063
      AccurateRip Verified Confidence 4 [CRCv2 e65cf993]
    
    Track 2:  Ripped LBA 9672 to 23075 (2:58) in 0:13. Filename: C:\NEWRIPS\Mills Brothers, The\22 Great Hits\02 - Paper Doll.m4a
      AccurateRip: Accurate (confidence 5)     [Pass 1]
      CRC32: 8D02F8EB     AccurateRip CRC: 85DD3400 (CRCv2)     [DiscID: 022-002e6d89-02ec5339-3f0dc016-2]
      AccurateRip Verified Confidence 5 [CRCv2 85dd3400]
      AccurateRip Verified Confidence 4 [CRCv2 68a3533f], Using Pressing Offset -1063
      AccurateRip Verified Confidence 4 [CRCv1 e114d8b6], Using Pressing Offset -1063
      AccurateRip Verified Confidence 5 [CRCv2 85dd3400]
    
    Track 3:  Ripped LBA 23075 to 34677 (2:34) in 0:12. Filename: C:\NEWRIPS\Mills Brothers, The\22 Great Hits\03 - Dinah.m4a
      AccurateRip: Accurate (confidence 5)     [Pass 1]
      CRC32: 88DA2F1D     AccurateRip CRC: 20C938F3 (CRCv2)     [DiscID: 022-002e6d89-02ec5339-3f0dc016-3]
      AccurateRip Verified Confidence 5 [CRCv2 20c938f3]
      AccurateRip Verified Confidence 4 [CRCv2 c58da7cb], Using Pressing Offset -1063
      AccurateRip Verified Confidence 4 [CRCv1 2733eff7], Using Pressing Offset -1063
      AccurateRip Verified Confidence 5 [CRCv2 20c938f3]
    
    Track 4:  Ripped LBA 34677 to 45192 (2:20) in 0:10. Filename: C:\NEWRIPS\Mills Brothers, The\22 Great Hits\04 - You're Nobody 'Till Somebody Loves You.m4a
      AccurateRip: Accurate (confidence 5)     [Pass 1]
      CRC32: BED86AC7     AccurateRip CRC: CF0AADD2 (CRCv2)     [DiscID: 022-002e6d89-02ec5339-3f0dc016-4]
      AccurateRip Verified Confidence 5 [CRCv2 cf0aadd2]
      AccurateRip Verified Confidence 4 [CRCv2 738bf76f], Using Pressing Offset -1063
      AccurateRip Verified Confidence 4 [CRCv1 5639dd3a], Using Pressing Offset -1063
      AccurateRip Verified Confidence 5 [CRCv2 cf0aadd2]
    
    Track 5:  Ripped LBA 45192 to 57472 (2:43) in 0:11. Filename: C:\NEWRIPS\Mills Brothers, The\22 Great Hits\05 - Yellow Bird.m4a
      AccurateRip: Accurate (confidence 5)     [Pass 1]
      CRC32: 3E2EBA94     AccurateRip CRC: 9A520243 (CRCv2)     [DiscID: 022-002e6d89-02ec5339-3f0dc016-5]
      AccurateRip Verified Confidence 5 [CRCv2 9a520243]
      AccurateRip Verified Confidence 4 [CRCv2 4eb3958e], Using Pressing Offset -1063
      AccurateRip Verified Confidence 4 [CRCv1 c92d2e59], Using Pressing Offset -1063
      AccurateRip Verified Confidence 5 [CRCv2 9a520243]
    
    Track 6:  Ripped LBA 57472 to 66435 (1:59) in 0:08. Filename: C:\NEWRIPS\Mills Brothers, The\22 Great Hits\06 - Tiger Rag.m4a
      AccurateRip: Accurate (confidence 5)     [Pass 1]
      CRC32: 18810512     AccurateRip CRC: AE15BC6C (CRCv2)     [DiscID: 022-002e6d89-02ec5339-3f0dc016-6]
      AccurateRip Verified Confidence 5 [CRCv2 ae15bc6c]
      AccurateRip Verified Confidence 4 [CRCv2 22d67ca2], Using Pressing Offset -1063
      AccurateRip Verified Confidence 4 [CRCv1 575e236c], Using Pressing Offset -1063
      AccurateRip Verified Confidence 5 [CRCv2 ae15bc6c]
    
    Track 7:  Ripped LBA 66435 to 77652 (2:29) in 0:10. Filename: C:\NEWRIPS\Mills Brothers, The\22 Great Hits\07 - You Never Miss The Water Till The Well Runs Dry.m4a
      AccurateRip: Accurate (confidence 5)     [Pass 1]
      CRC32: 8F46ADF9     AccurateRip CRC: 42E296DB (CRCv2)     [DiscID: 022-002e6d89-02ec5339-3f0dc016-7]
      AccurateRip Verified Confidence 5 [CRCv2 42e296db]
      AccurateRip Verified Confidence 4 [CRCv2 6bcba05c], Using Pressing Offset -1063
      AccurateRip Verified Confidence 4 [CRCv1 6b38ab2c], Using Pressing Offset -1063
      AccurateRip Verified Confidence 5 [CRCv2 42e296db]
    
    Track 8:  Ripped LBA 77652 to 89082 (2:32) in 0:10. Filename: C:\NEWRIPS\Mills Brothers, The\22 Great Hits\08 - You Broke The Only Heart (That Ever Loved).m4a
      AccurateRip: Accurate (confidence 5)     [Pass 1]
      CRC32: A75B64B6     AccurateRip CRC: 1EB6D527 (CRCv2)     [DiscID: 022-002e6d89-02ec5339-3f0dc016-8]
      AccurateRip Verified Confidence 5 [CRCv2 1eb6d527]
      AccurateRip Verified Confidence 4 [CRCv2 c40b92fd], Using Pressing Offset -1063
      AccurateRip Verified Confidence 4 [CRCv1 3c5e974e], Using Pressing Offset -1063
      AccurateRip Verified Confidence 5 [CRCv2 1eb6d527]
    
    Track 9:  Ripped LBA 89082 to 102390 (2:57) in 0:56. Filename: C:\NEWRIPS\Mills Brothers, The\22 Great Hits\09 - Cab Driver.m4a
      AccurateRip: Inaccurate (confidence 5)   Secure (Warning)  [Pass 1 & 2, Ultra 1 to 2, Re-Rip 1 Frames]
      CRC32: 6593CBAB     AccurateRip CRC: 28767743 (CRCv2)     [DiscID: 022-002e6d89-02ec5339-3f0dc016-9]
    
    Track 10:  Ripped LBA 102390 to 116110 (3:02) in 0:12. Filename: C:\NEWRIPS\Mills Brothers, The\22 Great Hits\10 - I Can't Give You Anything But Love.m4a
      AccurateRip: Accurate (confidence 5)     [Pass 1]
      CRC32: EE0B1DB2     AccurateRip CRC: BE5EAD11 (CRCv2)     [DiscID: 022-002e6d89-02ec5339-3f0dc016-10]
      AccurateRip Verified Confidence 5 [CRCv2 be5ead11]
      AccurateRip Verified Confidence 4 [CRCv2 abeaa923], Using Pressing Offset -1063
      AccurateRip Verified Confidence 4 [CRCv1 351fb6ad], Using Pressing Offset -1063
      AccurateRip Verified Confidence 5 [CRCv2 be5ead11]
    
    Track 11:  Ripped LBA 116110 to 131937 (3:31) in 0:14. Filename: C:\NEWRIPS\Mills Brothers, The\22 Great Hits\11 - Lazy River.m4a
      AccurateRip: Accurate (confidence 5)     [Pass 1]
      CRC32: 9C6A49F5     AccurateRip CRC: 6F98D648 (CRCv2)     [DiscID: 022-002e6d89-02ec5339-3f0dc016-11]
      AccurateRip Verified Confidence 5 [CRCv2 6f98d648]
      AccurateRip Verified Confidence 4 [CRCv2 4c54df2], Using Pressing Offset -1063
      AccurateRip Verified Confidence 4 [CRCv1 582445af], Using Pressing Offset -1063
      AccurateRip Verified Confidence 5 [CRCv2 6f98d648]
    
    Track 12:  Ripped LBA 131937 to 148227 (3:37) in 0:15. Filename: C:\NEWRIPS\Mills Brothers, The\22 Great Hits\12 - You Always Hurt The One You Love.m4a
      AccurateRip: Accurate (confidence 5)     [Pass 1]
      CRC32: DEE835BE     AccurateRip CRC: 6DB411B5 (CRCv2)     [DiscID: 022-002e6d89-02ec5339-3f0dc016-12]
      AccurateRip Verified Confidence 5 [CRCv2 6db411b5]
      AccurateRip Verified Confidence 4 [CRCv2 359ab5dc], Using Pressing Offset -1063
      AccurateRip Verified Confidence 4 [CRCv1 ce466c64], Using Pressing Offset -1063
      AccurateRip Verified Confidence 5 [CRCv2 6db411b5]
    
    Track 13:  Ripped LBA 148227 to 160362 (2:41) in 0:12. Filename: C:\NEWRIPS\Mills Brothers, The\22 Great Hits\13 - Coney Island Washboard.m4a
      AccurateRip: Accurate (confidence 5)     [Pass 1]
      CRC32: 6343601A     AccurateRip CRC: 66084B84 (CRCv2)     [DiscID: 022-002e6d89-02ec5339-3f0dc016-13]
      AccurateRip Verified Confidence 5 [CRCv2 66084b84]
      AccurateRip Verified Confidence 4 [CRCv2 e3c67518], Using Pressing Offset -1063
      AccurateRip Verified Confidence 4 [CRCv1 b3e5ceac], Using Pressing Offset -1063
      AccurateRip Verified Confidence 5 [CRCv2 66084b84]
    
    Track 14:  Ripped LBA 160362 to 173447 (2:54) in 0:15. Filename: C:\NEWRIPS\Mills Brothers, The\22 Great Hits\14 - When You Were Sweet Sixteen.m4a
      AccurateRip: Accurate (confidence 5)     [Pass 1]
      CRC32: 82178304     AccurateRip CRC: 7CE19485 (CRCv2)     [DiscID: 022-002e6d89-02ec5339-3f0dc016-14]
      AccurateRip Verified Confidence 5 [CRCv2 7ce19485]
      AccurateRip Verified Confidence 4 [CRCv2 a730a7f7], Using Pressing Offset -1063
      AccurateRip Verified Confidence 4 [CRCv1 7d8ec9a9], Using Pressing Offset -1063
      AccurateRip Verified Confidence 5 [CRCv2 7ce19485]
    
    Track 15:  Ripped LBA 173447 to 185447 (2:40) in 0:11. Filename: C:\NEWRIPS\Mills Brothers, The\22 Great Hits\15 - I'll Be Around.m4a
      AccurateRip: Accurate (confidence 5)     [Pass 1]
      CRC32: 24863D1C     AccurateRip CRC: 0101852C (CRCv2)     [DiscID: 022-002e6d89-02ec5339-3f0dc016-15]
      AccurateRip Verified Confidence 5 [CRCv2 101852c]
      AccurateRip Verified Confidence 4 [CRCv2 3baaaafa], Using Pressing Offset -1063
      AccurateRip Verified Confidence 4 [CRCv1 e7e247a5], Using Pressing Offset -1063
      AccurateRip Verified Confidence 5 [CRCv2 101852c]
    
    Track 16:  Ripped LBA 185447 to 198167 (2:49) in 0:12. Filename: C:\NEWRIPS\Mills Brothers, The\22 Great Hits\16 - Daddy's Little Girl.m4a
      AccurateRip: Accurate (confidence 5)     [Pass 1]
      CRC32: 48AE4913     AccurateRip CRC: 92DB1667 (CRCv2)     [DiscID: 022-002e6d89-02ec5339-3f0dc016-16]
      AccurateRip Verified Confidence 5 [CRCv2 92db1667]
      AccurateRip Verified Confidence 4 [CRCv2 479cde91], Using Pressing Offset -1063
      AccurateRip Verified Confidence 4 [CRCv1 71b857cc], Using Pressing Offset -1063
      AccurateRip Verified Confidence 5 [CRCv2 92db1667]
    
    Track 17:  Ripped LBA 198167 to 208937 (2:23) in 0:10. Filename: C:\NEWRIPS\Mills Brothers, The\22 Great Hits\17 - The Jones Boys.m4a
      AccurateRip: Accurate (confidence 5)     [Pass 1]
      CRC32: 1A48D412     AccurateRip CRC: 64F44772 (CRCv2)     [DiscID: 022-002e6d89-02ec5339-3f0dc016-17]
      AccurateRip Verified Confidence 5 [CRCv2 64f44772]
      AccurateRip Verified Confidence 4 [CRCv2 45e9a318], Using Pressing Offset -1063
      AccurateRip Verified Confidence 4 [CRCv1 eb4548a0], Using Pressing Offset -1063
      AccurateRip Verified Confidence 5 [CRCv2 64f44772]
    
    Track 18:  Ripped LBA 208937 to 224387 (3:26) in 0:14. Filename: C:\NEWRIPS\Mills Brothers, The\22 Great Hits\18 - On The Banks Of The Wabash.m4a
      AccurateRip: Accurate (confidence 5)     [Pass 1]
      CRC32: DCC1E381     AccurateRip CRC: 97413D83 (CRCv2)     [DiscID: 022-002e6d89-02ec5339-3f0dc016-18]
      AccurateRip Verified Confidence 5 [CRCv2 97413d83]
      AccurateRip Verified Confidence 4 [CRCv2 92eaa7f3], Using Pressing Offset -1063
      AccurateRip Verified Confidence 4 [CRCv1 202608b6], Using Pressing Offset -1063
      AccurateRip Verified Confidence 5 [CRCv2 97413d83]
    
    Track 19:  Ripped LBA 224387 to 232502 (1:48) in 0:07. Filename: C:\NEWRIPS\Mills Brothers, The\22 Great Hits\19 - Opus One.m4a
      AccurateRip: Accurate (confidence 5)     [Pass 1]
      CRC32: 2525C7B8     AccurateRip CRC: 1ED00A4F (CRCv2)     [DiscID: 022-002e6d89-02ec5339-3f0dc016-19]
      AccurateRip Verified Confidence 5 [CRCv2 1ed00a4f]
      AccurateRip Verified Confidence 4 [CRCv2 bc176bf9], Using Pressing Offset -1063
      AccurateRip Verified Confidence 4 [CRCv1 56b67884], Using Pressing Offset -1063
      AccurateRip Verified Confidence 5 [CRCv2 1ed00a4f]
    
    Track 20:  Ripped LBA 232502 to 241785 (2:03) in 0:08. Filename: C:\NEWRIPS\Mills Brothers, The\22 Great Hits\20 - I Don't Know Enough About You.m4a
      AccurateRip: Accurate (confidence 4)     [Pass 1]
      CRC32: E2BADD60     AccurateRip CRC: 027D63EC (CRCv2)     [DiscID: 022-002e6d89-02ec5339-3f0dc016-20]
      AccurateRip Verified Confidence 4 [CRCv2 27d63ec]
      AccurateRip Verified Confidence 4 [CRCv2 af1dfa9e], Using Pressing Offset -1063
      AccurateRip Verified Confidence 4 [CRCv1 c39a33e8], Using Pressing Offset -1063
      AccurateRip Verified Confidence 4 [CRCv2 27d63ec]
    
    Track 21:  Ripped LBA 241785 to 251715 (2:12) in 0:09. Filename: C:\NEWRIPS\Mills Brothers, The\22 Great Hits\21 - I Don't Mind Being All Alone (When I'm Alone With You).m4a
      AccurateRip: Accurate (confidence 5)     [Pass 1]
      CRC32: 0C65BB03     AccurateRip CRC: BDAD906E (CRCv2)     [DiscID: 022-002e6d89-02ec5339-3f0dc016-21]
      AccurateRip Verified Confidence 5 [CRCv2 bdad906e]
      AccurateRip Verified Confidence 4 [CRCv2 b3690508], Using Pressing Offset -1063
      AccurateRip Verified Confidence 4 [CRCv1 8b1a0256], Using Pressing Offset -1063
      AccurateRip Verified Confidence 5 [CRCv2 bdad906e]
    
    Track 22:  Ripped LBA 251715 to 264027 (2:44) in 0:11. Filename: C:\NEWRIPS\Mills Brothers, The\22 Great Hits\22 - Nevertheless (I'm In Love With You).m4a
      AccurateRip: Accurate (confidence 4)     [Pass 1]
      CRC32: FAA01A22     AccurateRip CRC: DCA556E1 (CRCv2)     [DiscID: 022-002e6d89-02ec5339-3f0dc016-22]
      AccurateRip Verified Confidence 4 [CRCv2 dca556e1]
      AccurateRip Verified Confidence 4 [CRCv2 855ad728], Using Pressing Offset -1063
      AccurateRip Verified Confidence 4 [CRCv1 8197381d], Using Pressing Offset -1063
      AccurateRip Verified Confidence 4 [CRCv2 dca556e1]
    
    --------------
    
    22 Tracks Ripped: 21 Accurate, 1 Secure (Warning)

  2. #2
    dBpoweramp Guru
    Join Date
    Nov 2007
    Location
    Florida, USA
    Posts
    4,743

    Re: inaccurate but secure (track *9)

    Nothing to worry about. The fact that it had to rerip some frames is OK because it eventually became "secure" (matching your ripper re-tries). Even if "inaccurate" result (rather than secure) it might not have any audible glitches, as being off a few frames could be a glitch that is measured in micro-seconds. However you're not getting an AccurateRip match back to the database, but several things could cause that. Hard to say. But I would be satisfied with this result.

Posting Permissions

  • You may not post new threads
  • You may not post replies
  • You may not post attachments
  • You may not edit your posts
  •