title
Products            Buy            Support Forum            Professional            About            Codec Central
 
Results 1 to 5 of 5

Thread: Failed rips

Threaded View

Previous Post Previous Post   Next Post Next Post
  1. #1

    Join Date
    Jul 2020
    Posts
    3

    Failed rips

    Iíve just bought a license for CD Ripper so that I can use it instead of Apple Music with my Rioddas drive. I was very pleased with the app during the trial period.

    But the first pair of CDs I tried to rip since buying a license has been problematic. Itís a two-disc set. The second disc rips fine. The first four tracks on disc 1 are fine as well, but tracks 5Ė8 fail to yield files that are unreadable. Apple Music has no problem ripping these tracks so the issue seems to be with CD Ripper.

    Here is CD Ripperís report:

    Information converting to FLAC, 'Track 5' to '/Volumes/Roon/Roon music for import/_cds/Gautier Capuc&*807;on/Brahms; Piano Quartets Nos. 1-3, Disc 1/05 Gautier Capuc&*807;on - Piano Quartet No. 3 in C minor ("Werther"), Op. 60; I. Alle.flac'
    Track 5: Ripped LBA 185034 to 234948 (11:05) in 1:04. Filename: /Volumes/Roon/Roon music for import/_cds/Gautier Capuc&*807;on/Brahms; Piano Quartets Nos. 1-3, Disc 1/05 Gautier Capuc&*807;on - Piano Quartet No. 3 in C minor ("Werther"), Op. 60; I. Alle.flac
    AccurateRip: Accurate (confidence 42) [Pass 1]
    CRC32: C280FF5F AccurateRip CRC: 05BF9022 (CRCv2) [DiscID: 008-0018c299-00a162cd-7911d208-5]
    AccurateRip Verified Confidence 42 [CRCv2 5bf9022]
    AccurateRip Verified Confidence 12 [CRCv1 eeb7cc0f]
    AccurateRip Verified Confidence 4 [CRCv2 c2a752ab], Using Pressing Offset +6
    Information converting to FLAC, 'Track 6' to '/Volumes/Roon/Roon music for import/_cds/Gautier Capuc&*807;on/Brahms; Piano Quartets Nos. 1-3, Disc 1/06 Gautier Capuc&*807;on - Piano Quartet No. 3 in C minor ("Werther"), Op. 60; II. Sch.flac'
    Track 6: Ripped LBA 234948 to 253930 (4:13) in 0:22. Filename: /Volumes/Roon/Roon music for import/_cds/Gautier Capuc&*807;on/Brahms; Piano Quartets Nos. 1-3, Disc 1/06 Gautier Capuc&*807;on - Piano Quartet No. 3 in C minor ("Werther"), Op. 60; II. Sch.flac
    AccurateRip: Accurate (confidence 42) [Pass 1]
    CRC32: E07392FA AccurateRip CRC: D069141D (CRCv2) [DiscID: 008-0018c299-00a162cd-7911d208-6]
    AccurateRip Verified Confidence 42 [CRCv2 d069141d]
    AccurateRip Verified Confidence 12 [CRCv1 67199e3a]
    AccurateRip Verified Confidence 4 [CRCv2 af30c831], Using Pressing Offset +6
    Audio File Passed Verification

    Information converting to FLAC, 'Track 7' to '/Volumes/Roon/Roon music for import/_cds/Gautier Capuc&*807;on/Brahms; Piano Quartets Nos. 1-3, Disc 1/07 Gautier Capuc&*807;on - Piano Quartet No. 3 in C minor ("Werther"), Op. 60; III. An.flac'
    Track 7: Ripped LBA 253930 to 296264 (9:24) in 0:48. Filename: /Volumes/Roon/Roon music for import/_cds/Gautier Capuc&*807;on/Brahms; Piano Quartets Nos. 1-3, Disc 1/07 Gautier Capuc&*807;on - Piano Quartet No. 3 in C minor ("Werther"), Op. 60; III. An.flac
    AccurateRip: Accurate (confidence 41) [Pass 1]
    CRC32: 11350F28 AccurateRip CRC: AD9BAE23 (CRCv2) [DiscID: 008-0018c299-00a162cd-7911d208-7]
    AccurateRip Verified Confidence 41 [CRCv2 ad9bae23]
    AccurateRip Verified Confidence 12 [CRCv1 d9f1bb92]
    AccurateRip Verified Confidence 4 [CRCv2 ee8e1649], Using Pressing Offset +6
    Audio File Passed Verification

    Information converting to FLAC, 'Track 8' to '/Volumes/Roon/Roon music for import/_cds/Gautier Capuc&*807;on/Brahms; Piano Quartets Nos. 1-3, Disc 1/08 Gautier Capuc&*807;on - Piano Quartet No. 3 in C minor ("Werther"), Op. 60; IV. Fin.flac'
    Track 8: Ripped LBA 296264 to 342173 (10:12) in 0:50. Filename: /Volumes/Roon/Roon music for import/_cds/Gautier Capuc&*807;on/Brahms; Piano Quartets Nos. 1-3, Disc 1/08 Gautier Capuc&*807;on - Piano Quartet No. 3 in C minor ("Werther"), Op. 60; IV. Fin.flac
    AccurateRip: Accurate (confidence 42) [Pass 1]
    CRC32: E1CCE68F AccurateRip CRC: 67A9EFE7 (CRCv2) [DiscID: 008-0018c299-00a162cd-7911d208-8]
    AccurateRip Verified Confidence 42 [CRCv2 67a9efe7]
    AccurateRip Verified Confidence 12 [CRCv1 f86ac20f]
    AccurateRip Verified Confidence 4 [CRCv2 1853db5b], Using Pressing Offset +6
    Audio File Passed Verification

    I'm also attaching screen grabs of CD Ripper's main window to show the configuration I'm using, and a Finder window to show the resulting files.

    Please help me to resolve this.

    Many thanks.
    Attached Images Attached Images

Posting Permissions

  • You may not post new threads
  • You may not post replies
  • You may not post attachments
  • You may not edit your posts
  •