title
Products            Buy            Support Forum            Professional            About            Codec Central
 
Results 1 to 8 of 8

Thread: Why for same cd

  1. #1

    Join Date
    Aug 2019
    Posts
    14

    Why for same cd

    I im ripping same cd in three formats wav ,flac and aiff
    three formats has to get same crc value
    but here each format of same song has different crc values
    why

    C2 pointer diabled
    Acuurate rip configured

    and also for secure rip tracks has tick mark in one format and same album with different format has i secure but has same crc values
    why

  2. #2
    Administrator
    Join Date
    Apr 2002
    Posts
    39,016

    Re: Why for same cd

    You would have to post the accuraterip results (in popup window at the end, click copy to clipboard) so we can see the actual values.

  3. #3

    Join Date
    Aug 2019
    Posts
    14

    Re: Why for same cd

    i will share here now
    just need few minutes

  4. #4

    Join Date
    Aug 2019
    Posts
    14

    Re: Why for same cd

    dBpoweramp Release 16.4 Digital Audio Extraction Log from Wednesday, October 23, 2019 15:38

    Drive & Settings
    ----------------

    Ripping with drive 'G: [HL-DT-ST - DVDRAM GH24NSD5 ]', Drive offset: 6, Overread Lead-in/out: No
    AccurateRip: Active, Using C2: No, Cache: 1024 KB, FUA Cache Invalidate: No
    Pass 1 Drive Speed: Max, Pass 2 Drive Speed: Max
    Bad Sector Re-rip:: Drive Speed: Max, Maximum Re-reads: 34

    Encoder: FLAC -uncompressed
    DSP Effects / Actions: -dspeffect1="CUE Sheet - Multiple Files="

    Extraction Log
    --------------

    Track 1: Ripped LBA 0 to 17624 (3:54) in 0:28. Filename: F:\MELODY\AMIT TRIVEDI\DEAR ZINDAGI {2016} {SONY MUSIC} {88985 40448 2}\01 Love You Zindagi ._
    Secure [Pass 1 & 2]
    CRC32: A73FA2EE AccurateRip CRC: 851A562F (CRCv2) [DiscID: 008-0009f8ec-00428511-62074c08-1]

    Track 2: Ripped LBA 17624 to 32738 (3:21) in 0:22. Filename: F:\MELODY\AMIT TRIVEDI\DEAR ZINDAGI {2016} {SONY MUSIC} {88985 40448 2}\02 Tu Hi Hai ._
    Secure [Pass 1 & 2]
    CRC32: DEC8BD01 AccurateRip CRC: 299B77C8 (CRCv2) [DiscID: 008-0009f8ec-00428511-62074c08-2]

    Track 3: Ripped LBA 32738 to 53663 (4:39) in 0:28. Filename: F:\MELODY\AMIT TRIVEDI\DEAR ZINDAGI {2016} {SONY MUSIC} {88985 40448 2}\03 Taarefon Se ._
    Secure [Pass 1 & 2]
    CRC32: 618F67C1 AccurateRip CRC: 0B355AE3 (CRCv2) [DiscID: 008-0009f8ec-00428511-62074c08-3]

    Track 4: Ripped LBA 53663 to 72224 (4:07) in 0:23. Filename: F:\MELODY\AMIT TRIVEDI\DEAR ZINDAGI {2016} {SONY MUSIC} {88985 40448 2}\04 Let's Break Up ._
    Secure [Pass 1 & 2]
    CRC32: 6ED32332 AccurateRip CRC: 43853F6F (CRCv2) [DiscID: 008-0009f8ec-00428511-62074c08-4]

    Track 5: Ripped LBA 72224 to 97388 (5:35) in 1:31. Filename: F:\MELODY\AMIT TRIVEDI\DEAR ZINDAGI {2016} {SONY MUSIC} {88985 40448 2}\05 Just Go To Hell Dil ._
    Secure (Warning) [Pass 1 & 2, Re-Rip 22 Frames]
    CRC32: 48C767B1 AccurateRip CRC: B0561182 (CRCv2) [DiscID: 008-0009f8ec-00428511-62074c08-5]

    Track 6: Ripped LBA 97388 to 113511 (3:34) in 0:17. Filename: F:\MELODY\AMIT TRIVEDI\DEAR ZINDAGI {2016} {SONY MUSIC} {88985 40448 2}\06 Love You Zindagi (Club Mix) ._
    Secure [Pass 1 & 2]
    CRC32: 8D9FE580 AccurateRip CRC: 7AFD3526 (CRCv2) [DiscID: 008-0009f8ec-00428511-62074c08-6]

    Track 7: Ripped LBA 113511 to 126299 (2:50) in 0:13. Filename: F:\MELODY\AMIT TRIVEDI\DEAR ZINDAGI {2016} {SONY MUSIC} {88985 40448 2}\07 Ae Zindagi Gale Laga Le (Take 1) ._
    Secure [Pass 1 & 2]
    CRC32: 3CC45E70 AccurateRip CRC: DCE2022C (CRCv2) [DiscID: 008-0009f8ec-00428511-62074c08-7]

    Track 8: Ripped LBA 126299 to 140101 (3:04) in 0:14. Filename: F:\MELODY\AMIT TRIVEDI\DEAR ZINDAGI {2016} {SONY MUSIC} {88985 40448 2}\08 Ae Zindagi Gale Laga Le (Take 2) ._
    Secure [Pass 1 & 2]
    CRC32: 1721F544 AccurateRip CRC: 88164E95 (CRCv2) [DiscID: 008-0009f8ec-00428511-62074c08-8]

    --------------

    8 Tracks Ripped: 7 Secure, 1 Secure (Warning)




    Information ripping to FLAC, 'Track 1' to 'F:\MELODY\AMIT TRIVEDI\DEAR ZINDAGI {2016} {SONY MUSIC} {88985 40448 2}\01 Love You Zindagi .flac'
    Track 1: Ripped LBA 0 to 17624 (3:54) in 1:03. Filename: F:\MELODY\AMIT TRIVEDI\DEAR ZINDAGI {2016} {SONY MUSIC} {88985 40448 2}\01 Love You Zindagi ._
    Secure [Pass 1 & 2]
    CRC32: A73FA2EE AccurateRip CRC: 851A562F (CRCv2) [DiscID: 008-0009f8ec-00428511-62074c08-1]

    Information ripping to FLAC, 'Track 2' to 'F:\MELODY\AMIT TRIVEDI\DEAR ZINDAGI {2016} {SONY MUSIC} {88985 40448 2}\02 Tu Hi Hai .flac'
    Track 2: Ripped LBA 17624 to 32738 (3:21) in 0:22. Filename: F:\MELODY\AMIT TRIVEDI\DEAR ZINDAGI {2016} {SONY MUSIC} {88985 40448 2}\02 Tu Hi Hai ._
    Secure [Pass 1 & 2]
    CRC32: DEC8BD01 AccurateRip CRC: 299B77C8 (CRCv2) [DiscID: 008-0009f8ec-00428511-62074c08-2]

    Information ripping to FLAC, 'Track 3' to 'F:\MELODY\AMIT TRIVEDI\DEAR ZINDAGI {2016} {SONY MUSIC} {88985 40448 2}\03 Taarefon Se .flac'
    Track 3: Ripped LBA 32738 to 53663 (4:39) in 1:48. Filename: F:\MELODY\AMIT TRIVEDI\DEAR ZINDAGI {2016} {SONY MUSIC} {88985 40448 2}\03 Taarefon Se ._
    Secure (Warning) [Pass 1 & 2, Re-Rip 25 Frames]
    CRC32: 618F67C1 AccurateRip CRC: 0B355AE3 (CRCv2) [DiscID: 008-0009f8ec-00428511-62074c08-3]

    Information ripping to FLAC, 'Track 4' to 'F:\MELODY\AMIT TRIVEDI\DEAR ZINDAGI {2016} {SONY MUSIC} {88985 40448 2}\04 Let's Break Up .flac'
    Track 4: Ripped LBA 53663 to 72224 (4:07) in 0:41. Filename: F:\MELODY\AMIT TRIVEDI\DEAR ZINDAGI {2016} {SONY MUSIC} {88985 40448 2}\04 Let's Break Up ._
    Secure (Warning) [Pass 1 & 2, Re-Rip 6 Frames]
    CRC32: 6ED32332 AccurateRip CRC: 43853F6F (CRCv2) [DiscID: 008-0009f8ec-00428511-62074c08-4]

    Information ripping to FLAC, 'Track 5' to 'F:\MELODY\AMIT TRIVEDI\DEAR ZINDAGI {2016} {SONY MUSIC} {88985 40448 2}\05 Just Go To Hell Dil .flac'
    Track 5: Ripped LBA 72224 to 97388 (5:35) in 5:42. Filename: F:\MELODY\AMIT TRIVEDI\DEAR ZINDAGI {2016} {SONY MUSIC} {88985 40448 2}\05 Just Go To Hell Dil ._
    Secure (Warning) [Pass 1 & 2, Re-Rip 84 Frames]
    CRC32: 48C767B1 AccurateRip CRC: B0561182 (CRCv2) [DiscID: 008-0009f8ec-00428511-62074c08-5]

    Information ripping to FLAC, 'Track 6' to 'F:\MELODY\AMIT TRIVEDI\DEAR ZINDAGI {2016} {SONY MUSIC} {88985 40448 2}\06 Love You Zindagi (Club Mix) .flac'
    Track 6: Ripped LBA 97388 to 113511 (3:34) in 2:35. Filename: F:\MELODY\AMIT TRIVEDI\DEAR ZINDAGI {2016} {SONY MUSIC} {88985 40448 2}\06 Love You Zindagi (Club Mix) ._
    Secure (Warning) [Pass 1 & 2, Re-Rip 51 Frames]
    CRC32: 8D9FE580 AccurateRip CRC: 7AFD3526 (CRCv2) [DiscID: 008-0009f8ec-00428511-62074c08-6]

    Information ripping to FLAC, 'Track 7' to 'F:\MELODY\AMIT TRIVEDI\DEAR ZINDAGI {2016} {SONY MUSIC} {88985 40448 2}\07 Ae Zindagi Gale Laga Le (Take 1) .flac'
    Track 7: Ripped LBA 113511 to 126299 (2:50) in 1:13. Filename: F:\MELODY\AMIT TRIVEDI\DEAR ZINDAGI {2016} {SONY MUSIC} {88985 40448 2}\07 Ae Zindagi Gale Laga Le (Take 1) ._
    Secure (Warning) [Pass 1 & 2, Re-Rip 25 Frames]
    CRC32: 3CC45E70 AccurateRip CRC: DCE2022C (CRCv2) [DiscID: 008-0009f8ec-00428511-62074c08-7]

    Information ripping to FLAC, 'Track 8' to 'F:\MELODY\AMIT TRIVEDI\DEAR ZINDAGI {2016} {SONY MUSIC} {88985 40448 2}\08 Ae Zindagi Gale Laga Le (Take 2) .flac'
    Track 8: Ripped LBA 126299 to 140101 (3:04) in 0:53. Filename: F:\MELODY\AMIT TRIVEDI\DEAR ZINDAGI {2016} {SONY MUSIC} {88985 40448 2}\08 Ae Zindagi Gale Laga Le (Take 2) ._
    Secure (Warning) [Pass 1 & 2, Re-Rip 17 Frames]
    CRC32: 1721F544 AccurateRip CRC: 88164E95 (CRCv2) [DiscID: 008-0009f8ec-00428511-62074c08-8]

  5. #5

    Join Date
    Aug 2019
    Posts
    14

    Re: Why for same cd

    shared sir
    please help sir

  6. #6
    Administrator
    Join Date
    Apr 2002
    Posts
    39,016

    Re: Why for same cd

    The CRCs are the same for both rips.

    The disc is not in accuraterip so that cannot be used.

  7. #7

    Join Date
    Aug 2019
    Posts
    14

    Re: Why for same cd

    ok but

    first time i got secure with tick mark
    and second time i got i secure

    why that dufference
    Last edited by saii; 10-23-2019 at 08:19 AM.

  8. #8
    Administrator
    Join Date
    Apr 2002
    Posts
    39,016

    Re: Why for same cd

    The 2nd rip:

    [Pass 1 & 2, Re-Rip 25 Frames]

    Here is likely your CD drive is playing up, each track has some frames which need re-ripping. Perhaps the drive has gotten too hot.

Posting Permissions

  • You may not post new threads
  • You may not post replies
  • You may not post attachments
  • You may not edit your posts
  •