title
Products            Buy            Support Forum            Professional            About
 
Results 1 to 2 of 2

Thread: Two inaccurate rips with dbpoweramp on different drives, fine in EAC?

  1. #1

    Two inaccurate rips with dbpoweramp on different drives, fine in EAC?

    I ripped a new CD (no marks on the disc, looked at it under a bright light) using dbpoweramp on two different laptops. In both cases the last track came up inaccurate. But ripping it in EAC produced a flawless rip.

    Here are the log files.

    Laptop 1:

    Code:
    dBpoweramp Release 16.4 Digital Audio Extraction Log from Tuesday, November 27, 2018 16:07
    
    Drive & Settings
    ----------------
    
    Ripping with drive 'D:   [HL-DT-ST - DVDRAM GUE0N    ]',  Drive offset: 102,  Overread Lead-in/out: No
    AccurateRip: Active,  Using C2: No,  Cache: 1024 KB,  FUA Cache Invalidate: No
    Pass 1 Drive Speed: Max,  Pass 2 Drive Speed: Max
    Ultra::  Vary Drive Speed: No,  Min Passes: 2,  Max Passes: 4,  Finish After Clean Passes: 2
    Bad Sector Re-rip::  Drive Speed: Max,  Maximum Re-reads: 34
    
    Encoder: FLAC -compression-level-5 -verify
    
    Extraction Log
    --------------
    
    Track 1:  Ripped LBA 0 to 14965 (3:19) in 0:25. Filename: C:\Himalia\Artur Schnabel\Beethoven; Piano Works, Vol. 1\01 - Piano Sonata No. 1 in F minor, Op. 2-1; Allegro._
      AccurateRip: Accurate (confidence 8)     [Pass 1]
      CRC32: 50309B21     AccurateRip CRC: 7D141C64     [DiscID: 012-001c3f5d-010e519d-9b0fa00c-1]
      AccurateRip Verified Confidence 8 [CRCv2 7d141c64], Using Pressing Offset -6
      AccurateRip Verified Confidence 5 [CRCv1 5f37901e], Using Pressing Offset -6
      AccurateRip Verified Confidence 3 [CRCv2 7cf4d94], Using Pressing Offset -92
      AccurateRip Verified Confidence 3 [CRCv1 d37514ef], Using Pressing Offset -92
    
    Track 2:  Ripped LBA 14965 to 42142 (6:02) in 0:28. Filename: C:\Himalia\Artur Schnabel\Beethoven; Piano Works, Vol. 1\02 - Piano Sonata No. 1 in F minor, Op. 2-1; Adagio._
      AccurateRip: Accurate (confidence 9)     [Pass 1]
      CRC32: B7CDCC85     AccurateRip CRC: 0DB75833     [DiscID: 012-001c3f5d-010e519d-9b0fa00c-2]
      AccurateRip Verified Confidence 9 [CRCv2 db75833], Using Pressing Offset -6
      AccurateRip Verified Confidence 5 [CRCv1 753392eb], Using Pressing Offset -6
      AccurateRip Verified Confidence 3 [CRCv2 1367a824], Using Pressing Offset -92
      AccurateRip Verified Confidence 3 [CRCv1 9056c194], Using Pressing Offset -92
    
    Track 3:  Ripped LBA 42142 to 57542 (3:25) in 0:14. Filename: C:\Himalia\Artur Schnabel\Beethoven; Piano Works, Vol. 1\03 - Piano Sonata No. 1 in F minor, Op. 2-1; Menuetto._
      AccurateRip: Accurate (confidence 9)     [Pass 1]
      CRC32: 5BE6D2A3     AccurateRip CRC: 6A1E7532     [DiscID: 012-001c3f5d-010e519d-9b0fa00c-3]
      AccurateRip Verified Confidence 9 [CRCv2 6a1e7532], Using Pressing Offset -6
      AccurateRip Verified Confidence 5 [CRCv1 19370e1a], Using Pressing Offset -6
      AccurateRip Verified Confidence 3 [CRCv2 10686a90], Using Pressing Offset -92
      AccurateRip Verified Confidence 3 [CRCv1 a8485ba9], Using Pressing Offset -92
    
    Track 4:  Ripped LBA 57542 to 79167 (4:48) in 0:19. Filename: C:\Himalia\Artur Schnabel\Beethoven; Piano Works, Vol. 1\04 - Piano Sonata No. 1 in F minor, Op. 2-1; Prestissimo._
      AccurateRip: Accurate (confidence 9)     [Pass 1]
      CRC32: 8DE060E8     AccurateRip CRC: 931775E8     [DiscID: 012-001c3f5d-010e519d-9b0fa00c-4]
      AccurateRip Verified Confidence 9 [CRCv2 931775e8], Using Pressing Offset -6
      AccurateRip Verified Confidence 5 [CRCv1 3d4af5ac], Using Pressing Offset -6
      AccurateRip Verified Confidence 3 [CRCv2 5de446f], Using Pressing Offset -92
      AccurateRip Verified Confidence 3 [CRCv1 906a8cbf], Using Pressing Offset -92
    
    Track 5:  Ripped LBA 79167 to 108540 (6:31) in 0:24. Filename: C:\Himalia\Artur Schnabel\Beethoven; Piano Works, Vol. 1\05 - Piano Sonata No. 2 in A major, Op. 2-2; Allegro vivace._
      AccurateRip: Accurate (confidence 9)     [Pass 1]
      CRC32: 3EAF01C1     AccurateRip CRC: 48B3212B     [DiscID: 012-001c3f5d-010e519d-9b0fa00c-5]
      AccurateRip Verified Confidence 9 [CRCv2 48b3212b], Using Pressing Offset -6
      AccurateRip Verified Confidence 5 [CRCv1 1717a93e], Using Pressing Offset -6
      AccurateRip Verified Confidence 3 [CRCv2 79ce7808], Using Pressing Offset -92
      AccurateRip Verified Confidence 3 [CRCv1 37289ebc], Using Pressing Offset -92
    
    Track 6:  Ripped LBA 108540 to 141690 (7:22) in 0:24. Filename: C:\Himalia\Artur Schnabel\Beethoven; Piano Works, Vol. 1\06 - Piano Sonata No. 2 in A major, Op. 2-2; Largo appassionato._
      AccurateRip: Accurate (confidence 9)     [Pass 1]
      CRC32: 29B95190     AccurateRip CRC: 6A66C86D     [DiscID: 012-001c3f5d-010e519d-9b0fa00c-6]
      AccurateRip Verified Confidence 9 [CRCv2 6a66c86d], Using Pressing Offset -6
      AccurateRip Verified Confidence 5 [CRCv1 9fd98b1a], Using Pressing Offset -6
      AccurateRip Verified Confidence 3 [CRCv2 d90105c5], Using Pressing Offset -92
      AccurateRip Verified Confidence 3 [CRCv1 dcb36159], Using Pressing Offset -92
    
    Track 7:  Ripped LBA 141690 to 156822 (3:21) in 0:10. Filename: C:\Himalia\Artur Schnabel\Beethoven; Piano Works, Vol. 1\07 - Piano Sonata No. 2 in A major, Op. 2-2; Scherzo._
      AccurateRip: Accurate (confidence 9)     [Pass 1]
      CRC32: C93793AA     AccurateRip CRC: 9BD5E683     [DiscID: 012-001c3f5d-010e519d-9b0fa00c-7]
      AccurateRip Verified Confidence 9 [CRCv2 9bd5e683], Using Pressing Offset -6
      AccurateRip Verified Confidence 5 [CRCv1 7ea63d23], Using Pressing Offset -6
      AccurateRip Verified Confidence 3 [CRCv2 13b44ca2], Using Pressing Offset -92
      AccurateRip Verified Confidence 3 [CRCv1 9286d65], Using Pressing Offset -92
    
    Track 8:  Ripped LBA 156822 to 183027 (5:49) in 0:17. Filename: C:\Himalia\Artur Schnabel\Beethoven; Piano Works, Vol. 1\08 - Piano Sonata No. 2 in A major, Op. 2-2; Rondo; Grazioso._
      AccurateRip: Accurate (confidence 8)     [Pass 1]
      CRC32: 95A515B0     AccurateRip CRC: 8872F61E     [DiscID: 012-001c3f5d-010e519d-9b0fa00c-8]
      AccurateRip Verified Confidence 8 [CRCv2 8872f61e], Using Pressing Offset -6
      AccurateRip Verified Confidence 5 [CRCv1 34e71f9e], Using Pressing Offset -6
      AccurateRip Verified Confidence 3 [CRCv2 3c83ccf0], Using Pressing Offset -92
      AccurateRip Verified Confidence 3 [CRCv1 c202faff], Using Pressing Offset -92
    
    Track 9:  Ripped LBA 183027 to 228257 (10:03) in 0:28. Filename: C:\Himalia\Artur Schnabel\Beethoven; Piano Works, Vol. 1\09 - Piano Sonata No. 3 in C major, Op. 2-3; Allegro con brio._
      AccurateRip: Accurate (confidence 8)     [Pass 1]
      CRC32: 960ACAFE     AccurateRip CRC: 61886362     [DiscID: 012-001c3f5d-010e519d-9b0fa00c-9]
      AccurateRip Verified Confidence 8 [CRCv2 61886362], Using Pressing Offset -6
      AccurateRip Verified Confidence 5 [CRCv1 e7d15efc], Using Pressing Offset -6
      AccurateRip Verified Confidence 3 [CRCv2 4ca24289], Using Pressing Offset -92
      AccurateRip Verified Confidence 3 [CRCv1 cb0f9417], Using Pressing Offset -92
    
    Track 10:  Ripped LBA 228257 to 263130 (7:44) in 0:20. Filename: C:\Himalia\Artur Schnabel\Beethoven; Piano Works, Vol. 1\10 - Piano Sonata No. 3 in C major, Op. 2-3; Adagio._
      AccurateRip: Accurate (confidence 8)     [Pass 1]
      CRC32: 3DEFD43A     AccurateRip CRC: F940851D     [DiscID: 012-001c3f5d-010e519d-9b0fa00c-10]
      AccurateRip Verified Confidence 8 [CRCv2 f940851d], Using Pressing Offset -6
      AccurateRip Verified Confidence 5 [CRCv1 8617c67c], Using Pressing Offset -6
      AccurateRip Verified Confidence 3 [CRCv2 fd32d892], Using Pressing Offset -92
      AccurateRip Verified Confidence 3 [CRCv1 5eef9fef], Using Pressing Offset -92
    
    Track 11:  Ripped LBA 263130 to 275947 (2:50) in 0:07. Filename: C:\Himalia\Artur Schnabel\Beethoven; Piano Works, Vol. 1\11 - Piano Sonata No. 3 in C major, Op. 2-3; Scherzo._
      AccurateRip: Accurate (confidence 8)     [Pass 1]
      CRC32: 4E346361     AccurateRip CRC: EA9D8259     [DiscID: 012-001c3f5d-010e519d-9b0fa00c-11]
      AccurateRip Verified Confidence 8 [CRCv2 ea9d8259], Using Pressing Offset -6
      AccurateRip Verified Confidence 5 [CRCv1 cc5ca7ad], Using Pressing Offset -6
      AccurateRip Verified Confidence 3 [CRCv2 535ff1a7], Using Pressing Offset -92
      AccurateRip Verified Confidence 3 [CRCv1 34449aac], Using Pressing Offset -92
    
    Track 12:  Ripped LBA 275947 to 300000 (5:20) in 0:54. Filename: C:\Himalia\Artur Schnabel\Beethoven; Piano Works, Vol. 1\12 - Piano Sonata No. 3 in C major, Op. 2-3; Allegro assai._
      AccurateRip: Inaccurate (confidence 8)   Secure  [Pass 1 & 2, Ultra 1 to 2]
      CRC32: 013C3DE7     AccurateRip CRC: CE16126B (CRCv2)     [DiscID: 012-001c3f5d-010e519d-9b0fa00c-12]
    
    --------------
    
    12 Tracks Ripped: 11 Accurate, 1 Secure
    Laptop 2 (dbpoweramp):

    Code:
    dBpoweramp Release 16.2 Digital Audio Extraction Log from Tuesday, November 27, 2018 16:17
    
    Drive & Settings
    ----------------
    
    Ripping with drive 'F:   [HL-DT-ST - DVDRAM GT33N    ]',  Drive offset: 103,  Overread Lead-in/out: No
    AccurateRip: Active,  Using C2: No,  Cache: 1024 KB,  FUA Cache Invalidate: No
    Pass 1 Drive Speed: Max,  Pass 2 Drive Speed: Max
    Ultra::  Vary Drive Speed: No,  Min Passes: 2,  Max Passes: 4,  Finish After Clean Passes: 2
    Bad Sector Re-rip::  Drive Speed: Max,  Maximum Re-reads: 34
    
    Encoder: FLAC -compression-level-5 -verify
    
    Extraction Log
    --------------
    
    Track 1:  Ripped LBA 0 to 14965 (3:19) in 0:26. Filename: C:\Aitne\Artur Schnabel\Beethoven; Piano Works, Vol. 1\01 Artur Schnabel - Piano Sonata No. 1 in F minor, Op. 2-1; Allegro._
      AccurateRip: Accurate (confidence 8)     [Pass 1]
      CRC32: 50309B21     AccurateRip CRC: 7D141C64     [DiscID: 012-001c3f5d-010e519d-9b0fa00c-1]
      AccurateRip Verified Confidence 8 [CRCv2 7d141c64], Using Pressing Offset -6
      AccurateRip Verified Confidence 5 [CRCv1 5f37901e], Using Pressing Offset -6
      AccurateRip Verified Confidence 3 [CRCv2 7cf4d94], Using Pressing Offset -92
      AccurateRip Verified Confidence 3 [CRCv1 d37514ef], Using Pressing Offset -92
    
    Track 2:  Ripped LBA 14965 to 42142 (6:02) in 0:33. Filename: C:\Aitne\Artur Schnabel\Beethoven; Piano Works, Vol. 1\02 Artur Schnabel - Piano Sonata No. 1 in F minor, Op. 2-1; Adagio._
      AccurateRip: Accurate (confidence 9)     [Pass 1]
      CRC32: B7CDCC85     AccurateRip CRC: 0DB75833     [DiscID: 012-001c3f5d-010e519d-9b0fa00c-2]
      AccurateRip Verified Confidence 9 [CRCv2 db75833], Using Pressing Offset -6
      AccurateRip Verified Confidence 5 [CRCv1 753392eb], Using Pressing Offset -6
      AccurateRip Verified Confidence 3 [CRCv2 1367a824], Using Pressing Offset -92
      AccurateRip Verified Confidence 3 [CRCv1 9056c194], Using Pressing Offset -92
    
    Track 3:  Ripped LBA 42142 to 57542 (3:25) in 0:17. Filename: C:\Aitne\Artur Schnabel\Beethoven; Piano Works, Vol. 1\03 Artur Schnabel - Piano Sonata No. 1 in F minor, Op. 2-1; Menuetto._
      AccurateRip: Accurate (confidence 9)     [Pass 1]
      CRC32: 5BE6D2A3     AccurateRip CRC: 6A1E7532     [DiscID: 012-001c3f5d-010e519d-9b0fa00c-3]
      AccurateRip Verified Confidence 9 [CRCv2 6a1e7532], Using Pressing Offset -6
      AccurateRip Verified Confidence 5 [CRCv1 19370e1a], Using Pressing Offset -6
      AccurateRip Verified Confidence 3 [CRCv2 10686a90], Using Pressing Offset -92
      AccurateRip Verified Confidence 3 [CRCv1 a8485ba9], Using Pressing Offset -92
    
    Track 4:  Ripped LBA 57542 to 79167 (4:48) in 0:22. Filename: C:\Aitne\Artur Schnabel\Beethoven; Piano Works, Vol. 1\04 Artur Schnabel - Piano Sonata No. 1 in F minor, Op. 2-1; Prestissimo._
      AccurateRip: Accurate (confidence 9)     [Pass 1]
      CRC32: 8DE060E8     AccurateRip CRC: 931775E8     [DiscID: 012-001c3f5d-010e519d-9b0fa00c-4]
      AccurateRip Verified Confidence 9 [CRCv2 931775e8], Using Pressing Offset -6
      AccurateRip Verified Confidence 5 [CRCv1 3d4af5ac], Using Pressing Offset -6
      AccurateRip Verified Confidence 3 [CRCv2 5de446f], Using Pressing Offset -92
      AccurateRip Verified Confidence 3 [CRCv1 906a8cbf], Using Pressing Offset -92
    
    Track 5:  Ripped LBA 79167 to 108540 (6:31) in 0:27. Filename: C:\Aitne\Artur Schnabel\Beethoven; Piano Works, Vol. 1\05 Artur Schnabel - Piano Sonata No. 2 in A major, Op. 2-2; Allegro vivace._
      AccurateRip: Accurate (confidence 9)     [Pass 1]
      CRC32: 3EAF01C1     AccurateRip CRC: 48B3212B     [DiscID: 012-001c3f5d-010e519d-9b0fa00c-5]
      AccurateRip Verified Confidence 9 [CRCv2 48b3212b], Using Pressing Offset -6
      AccurateRip Verified Confidence 5 [CRCv1 1717a93e], Using Pressing Offset -6
      AccurateRip Verified Confidence 3 [CRCv2 79ce7808], Using Pressing Offset -92
      AccurateRip Verified Confidence 3 [CRCv1 37289ebc], Using Pressing Offset -92
    
    Track 6:  Ripped LBA 108540 to 141690 (7:22) in 0:28. Filename: C:\Aitne\Artur Schnabel\Beethoven; Piano Works, Vol. 1\06 Artur Schnabel - Piano Sonata No. 2 in A major, Op. 2-2; Largo appassionato._
      AccurateRip: Accurate (confidence 9)     [Pass 1]
      CRC32: 29B95190     AccurateRip CRC: 6A66C86D     [DiscID: 012-001c3f5d-010e519d-9b0fa00c-6]
      AccurateRip Verified Confidence 9 [CRCv2 6a66c86d], Using Pressing Offset -6
      AccurateRip Verified Confidence 5 [CRCv1 9fd98b1a], Using Pressing Offset -6
      AccurateRip Verified Confidence 3 [CRCv2 d90105c5], Using Pressing Offset -92
      AccurateRip Verified Confidence 3 [CRCv1 dcb36159], Using Pressing Offset -92
    
    Track 7:  Ripped LBA 141690 to 156822 (3:21) in 0:15. Filename: C:\Aitne\Artur Schnabel\Beethoven; Piano Works, Vol. 1\07 Artur Schnabel - Piano Sonata No. 2 in A major, Op. 2-2; Scherzo._
      AccurateRip: Accurate (confidence 9)     [Pass 1]
      CRC32: C93793AA     AccurateRip CRC: 9BD5E683     [DiscID: 012-001c3f5d-010e519d-9b0fa00c-7]
      AccurateRip Verified Confidence 9 [CRCv2 9bd5e683], Using Pressing Offset -6
      AccurateRip Verified Confidence 5 [CRCv1 7ea63d23], Using Pressing Offset -6
      AccurateRip Verified Confidence 3 [CRCv2 13b44ca2], Using Pressing Offset -92
      AccurateRip Verified Confidence 3 [CRCv1 9286d65], Using Pressing Offset -92
    
    Track 8:  Ripped LBA 156822 to 183027 (5:49) in 0:23. Filename: C:\Aitne\Artur Schnabel\Beethoven; Piano Works, Vol. 1\08 Artur Schnabel - Piano Sonata No. 2 in A major, Op. 2-2; Rondo; Grazioso._
      AccurateRip: Accurate (confidence 8)     [Pass 1]
      CRC32: 95A515B0     AccurateRip CRC: 8872F61E     [DiscID: 012-001c3f5d-010e519d-9b0fa00c-8]
      AccurateRip Verified Confidence 8 [CRCv2 8872f61e], Using Pressing Offset -6
      AccurateRip Verified Confidence 5 [CRCv1 34e71f9e], Using Pressing Offset -6
      AccurateRip Verified Confidence 3 [CRCv2 3c83ccf0], Using Pressing Offset -92
      AccurateRip Verified Confidence 3 [CRCv1 c202faff], Using Pressing Offset -92
    
    Track 9:  Ripped LBA 183027 to 228257 (10:03) in 0:32. Filename: C:\Aitne\Artur Schnabel\Beethoven; Piano Works, Vol. 1\09 Artur Schnabel - Piano Sonata No. 3 in C major, Op. 2-3; Allegro con brio._
      AccurateRip: Accurate (confidence 8)     [Pass 1]
      CRC32: 960ACAFE     AccurateRip CRC: 61886362     [DiscID: 012-001c3f5d-010e519d-9b0fa00c-9]
      AccurateRip Verified Confidence 8 [CRCv2 61886362], Using Pressing Offset -6
      AccurateRip Verified Confidence 5 [CRCv1 e7d15efc], Using Pressing Offset -6
      AccurateRip Verified Confidence 3 [CRCv2 4ca24289], Using Pressing Offset -92
      AccurateRip Verified Confidence 3 [CRCv1 cb0f9417], Using Pressing Offset -92
    
    Track 10:  Ripped LBA 228257 to 263130 (7:44) in 0:23. Filename: C:\Aitne\Artur Schnabel\Beethoven; Piano Works, Vol. 1\10 Artur Schnabel - Piano Sonata No. 3 in C major, Op. 2-3; Adagio._
      AccurateRip: Accurate (confidence 8)     [Pass 1]
      CRC32: 3DEFD43A     AccurateRip CRC: F940851D     [DiscID: 012-001c3f5d-010e519d-9b0fa00c-10]
      AccurateRip Verified Confidence 8 [CRCv2 f940851d], Using Pressing Offset -6
      AccurateRip Verified Confidence 5 [CRCv1 8617c67c], Using Pressing Offset -6
      AccurateRip Verified Confidence 3 [CRCv2 fd32d892], Using Pressing Offset -92
      AccurateRip Verified Confidence 3 [CRCv1 5eef9fef], Using Pressing Offset -92
    
    Track 11:  Ripped LBA 263130 to 275947 (2:50) in 0:08. Filename: C:\Aitne\Artur Schnabel\Beethoven; Piano Works, Vol. 1\11 Artur Schnabel - Piano Sonata No. 3 in C major, Op. 2-3; Scherzo._
      AccurateRip: Accurate (confidence 8)     [Pass 1]
      CRC32: 4E346361     AccurateRip CRC: EA9D8259     [DiscID: 012-001c3f5d-010e519d-9b0fa00c-11]
      AccurateRip Verified Confidence 8 [CRCv2 ea9d8259], Using Pressing Offset -6
      AccurateRip Verified Confidence 5 [CRCv1 cc5ca7ad], Using Pressing Offset -6
      AccurateRip Verified Confidence 3 [CRCv2 535ff1a7], Using Pressing Offset -92
      AccurateRip Verified Confidence 3 [CRCv1 34449aac], Using Pressing Offset -92
    
    Track 12:  Ripped LBA 275947 to 300000 (5:20) in 1:02. Filename: C:\Aitne\Artur Schnabel\Beethoven; Piano Works, Vol. 1\12 Artur Schnabel - Piano Sonata No. 3 in C major, Op. 2-3; Allegro assai._
      AccurateRip: Inaccurate (confidence 8)   Secure  [Pass 1 & 2, Ultra 1 to 2]
      CRC32: 013C3DE7     AccurateRip CRC: CE16126B (CRCv2)     [DiscID: 012-001c3f5d-010e519d-9b0fa00c-12]
    
    --------------
    
    12 Tracks Ripped: 11 Accurate, 1 Secure
    Laptop 2 (EAC)

    Code:
    Exact Audio Copy V1.3 from 2. September 2016
    
    EAC extraction logfile from 27. November 2018, 17:58
    
    Artur Schnabel / Piano Works Vol. 1
    
    Used drive  : HL-DT-STDVDRAM GT33N   Adapter: 1  ID: 0
    
    Read mode               : Secure
    Utilize accurate stream : Yes
    Defeat audio cache      : Yes
    Make use of C2 pointers : No
    
    Read offset correction                      : 103
    Overread into Lead-In and Lead-Out          : No
    Fill up missing offset samples with silence : Yes
    Delete leading and trailing silent blocks   : No
    Null samples used in CRC calculations       : Yes
    Used interface                              : Native Win32 interface for Win NT & 2000
    Gap handling                                : Appended to previous track
    
    Used output format              : User Defined Encoder
    Selected bitrate                : 128 kBit/s
    Quality                         : High
    Add ID3 tag                     : No
    Command line compressor         : C:\Program Files (x86)\Exact Audio Copy\Flac\flac.exe
    Additional command line options : -8 -V -T "ARTIST=%artist%" -T "TITLE=%title%" -T "ALBUM=%albumtitle%" -T "DATE=%year%" -T "TRACKNUMBER=%tracknr%" -T "TOTALTRACKS=%numtracks%" -T "GENRE=%genre%" -T "ALBUMARTIST=%albumartist%" -T "ALBUM ARTIST=%albumartist%" -T "COMMENT=EAC Secure Mode, Test & Copy, AccurateRip, FLAC -8" %source%
    
    
    TOC of the extracted CD
    
         Track |   Start  |  Length  | Start sector | End sector 
        ---------------------------------------------------------
            1  |  0:00.00 |  3:19.40 |         0    |    14964   
            2  |  3:19.40 |  6:02.27 |     14965    |    42141   
            3  |  9:21.67 |  3:25.25 |     42142    |    57541   
            4  | 12:47.17 |  4:48.25 |     57542    |    79166   
            5  | 17:35.42 |  6:31.48 |     79167    |   108539   
            6  | 24:07.15 |  7:22.00 |    108540    |   141689   
            7  | 31:29.15 |  3:21.57 |    141690    |   156821   
            8  | 34:50.72 |  5:49.30 |    156822    |   183026   
            9  | 40:40.27 | 10:03.05 |    183027    |   228256   
           10  | 50:43.32 |  7:44.73 |    228257    |   263129   
           11  | 58:28.30 |  2:50.67 |    263130    |   275946   
           12  | 61:19.22 |  5:20.53 |    275947    |   299999   
    
    
    Track  1
    
         Filename C:\Aitne\01 - Piano Sonata No. 1 in f, Op. 2 No. 1 I Allegro.wav
    
         Pre-gap length  0:00:02.00
    
         Peak level 67.9 %
         Extraction speed 2.2 X
         Track quality 99.9 %
         Test CRC 50309B21
         Copy CRC 50309B21
         Cannot be verified as accurate (confidence 8)  [4D20C4CF], AccurateRip returned [7D141C64]  (AR v2)
         Copy OK
    
    Track  2
    
         Filename C:\Aitne\02 - Piano Sonata No. 1 in f, Op. 2 No. 1 II Adagio.wav
    
         Pre-gap length  0:00:01.08
    
         Peak level 56.1 %
         Extraction speed 3.0 X
         Track quality 100.0 %
         Test CRC B7CDCC85
         Copy CRC B7CDCC85
         Cannot be verified as accurate (confidence 9)  [173017C1], AccurateRip returned [0DB75833]  (AR v2)
         Copy OK
    
    Track  3
    
         Filename C:\Aitne\03 - Piano Sonata No. 1 in f, Op.02 No. 1  III Menuetto and Trio (Allegretto).wav
    
         Peak level 73.0 %
         Extraction speed 3.1 X
         Track quality 100.0 %
         Test CRC 5BE6D2A3
         Copy CRC 5BE6D2A3
         Cannot be verified as accurate (confidence 9)  [78B91638], AccurateRip returned [6A1E7532]  (AR v2)
         Copy OK
    
    Track  4
    
         Filename C:\Aitne\04 - Piano Sonata No. 1 in f, Op.02 No. 1 IV Prestissimo.wav
    
         Pre-gap length  0:00:01.25
    
         Peak level 77.1 %
         Extraction speed 3.4 X
         Track quality 100.0 %
         Test CRC 8DE060E8
         Copy CRC 8DE060E8
         Cannot be verified as accurate (confidence 9)  [91CD8131], AccurateRip returned [931775E8]  (AR v2)
         Copy OK
    
    Track  5
    
         Filename C:\Aitne\05 - Piano Sonata No. 2 in A, Op.02 No. 2 I Allegro vivace.wav
    
         Pre-gap length  0:00:07.15
    
         Peak level 81.1 %
         Extraction speed 3.8 X
         Track quality 100.0 %
         Test CRC 3EAF01C1
         Copy CRC 3EAF01C1
         Cannot be verified as accurate (confidence 9)  [4DF536F1], AccurateRip returned [48B3212B]  (AR v2)
         Copy OK
    
    Track  6
    
         Filename C:\Aitne\06 - Piano Sonata No. 2 in A, Op.02 No. 2 II Largo appassionato.wav
    
         Pre-gap length  0:00:01.73
    
         Peak level 88.5 %
         Extraction speed 4.2 X
         Track quality 100.0 %
         Test CRC 29B95190
         Copy CRC 29B95190
         Cannot be verified as accurate (confidence 9)  [67ED279D], AccurateRip returned [6A66C86D]  (AR v2)
         Copy OK
    
    Track  7
    
         Filename C:\Aitne\07 - Piano Sonata No. 2 in A, Op.02 No. 2 III Scherzo and Trio (Allegretto).wav
    
         Peak level 72.1 %
         Extraction speed 4.0 X
         Track quality 100.0 %
         Test CRC C93793AA
         Copy CRC C93793AA
         Cannot be verified as accurate (confidence 9)  [59D1AE8F], AccurateRip returned [9BD5E683]  (AR v2)
         Copy OK
    
    Track  8
    
         Filename C:\Aitne\08 - Piano Sonata No. 2 in A, Op.02 No. 2 IV Rondo (Grazioso).wav
    
         Peak level 65.4 %
         Extraction speed 4.6 X
         Track quality 100.0 %
         Test CRC 95A515B0
         Copy CRC 95A515B0
         Cannot be verified as accurate (confidence 8)  [09A27EE5], AccurateRip returned [8872F61E]  (AR v2)
         Copy OK
    
    Track  9
    
         Filename C:\Aitne\09 - Piano Sonata No. 3 in C, Op.02 No. 3 I Allegro con brio.wav
    
         Pre-gap length  0:00:07.05
    
         Peak level 99.9 %
         Extraction speed 5.1 X
         Track quality 100.0 %
         Test CRC 960ACAFE
         Copy CRC 960ACAFE
         Cannot be verified as accurate (confidence 8)  [5F5D9CE5], AccurateRip returned [61886362]  (AR v2)
         Copy OK
    
    Track 10
    
         Filename C:\Aitne\10 - Piano Sonata No. 3 in C, Op.02 No. 3 II Adagio.wav
    
         Peak level 86.6 %
         Extraction speed 5.3 X
         Track quality 100.0 %
         Test CRC 3DEFD43A
         Copy CRC 3DEFD43A
         Cannot be verified as accurate (confidence 8)  [0C924E62], AccurateRip returned [F940851D]  (AR v2)
         Copy OK
    
    Track 11
    
         Filename C:\Aitne\11 - Piano Sonata No. 3 in C, Op.02 No. 3 III Scherzo and Trio - Allegro.wav
    
         Pre-gap length  0:00:00.01
    
         Peak level 80.1 %
         Extraction speed 4.8 X
         Track quality 100.0 %
         Test CRC 4E346361
         Copy CRC 4E346361
         Cannot be verified as accurate (confidence 8)  [A0B6010C], AccurateRip returned [EA9D8259]  (AR v2)
         Copy OK
    
    Track 12
    
         Filename C:\Aitne\12 - Piano Sonata No. 3 in C, Op.02 No. 3 IV Allegro assai.wav
    
         Peak level 77.6 %
         Extraction speed 4.9 X
         Track quality 99.9 %
         Test CRC 013C3DE7
         Copy CRC 013C3DE7
         Cannot be verified as accurate (confidence 8)  [CE16126B], AccurateRip returned [9DCAEEC0]  (AR v2)
         Copy OK
    
    
    No tracks could be verified as accurate
    You may have a different pressing from the one(s) in the database
    
    No errors occurred
    
    End of status report
    
    ---- CUETools DB Plugin V2.1.6
    
    [CTDB TOCID: HUg17t81nRbTeiKEWh5nW8ddyLk-] found
    Submit result: already submitted
    Track | CTDB Status
      1   | (16/16) Accurately ripped
      2   | (16/16) Accurately ripped
      3   | (16/16) Accurately ripped
      4   | (16/16) Accurately ripped
      5   | (16/16) Accurately ripped
      6   | (16/16) Accurately ripped
      7   | (16/16) Accurately ripped
      8   | (16/16) Accurately ripped
      9   | (16/16) Accurately ripped
     10   | (16/16) Accurately ripped
     11   | (16/16) Accurately ripped
     12   | ( 4/16) Accurately ripped, or (12/16) differs in 2948 samples @02:05:26-02:05:27,02:07:67,02:09:31-02:09:32,02:09:50,02:10:71-02:10:72,02:11:15-02:11:16,02:11:53-02:11:54,02:11:72,02:12:35
    If you are sure that your rip contains errors, you can use CUETools to repair it.
    
    
    ==== Log checksum 26869F795B7C57BF5E56307F761B469341700AA557BFAAE9C90CFAAC0F3454F5 ====

  2. #2
    Administrator
    Join Date
    Apr 2002
    Posts
    37,659

    Re: Two inaccurate rips with dbpoweramp on different drives, fine in EAC?

    dBpoweramp:

    Track 12: Ripped LBA 275947 to 300000 (5:20) in 1:02. Filename: C:\Aitne\Artur Schnabel\Beethoven; Piano Works, Vol. 1\12 Artur Schnabel - Piano Sonata No. 3 in C major, Op. 2-3; Allegro assai._
    AccurateRip: Inaccurate (confidence 8) Secure [Pass 1 & 2, Ultra 1 to 2]
    CRC32: 013C3DE7 AccurateRip CRC: CE16126B (CRCv2) [DiscID: 012-001c3f5d-010e519d-9b0fa00c-12]

    EAC:

    Track 12

    Filename C:\Aitne\12 - Piano Sonata No. 3 in C, Op.02 No. 3 IV Allegro assai.wav

    Peak level 77.6 %
    Extraction speed 4.9 X
    Track quality 99.9 %
    Test CRC 013C3DE7
    Copy CRC 013C3DE7
    Cannot be verified as accurate (confidence 8) [CE16126B], AccurateRip returned [9DCAEEC0] (AR v2)
    Copy OK


    The rips are identical, and EAC states that the Rip is not accurate.

Posting Permissions

  • You may not post new threads
  • You may not post replies
  • You may not post attachments
  • You may not edit your posts
  •