title
Products            Purchase            Codec Central            Forum & Support            Professional            About
  
Results 1 to 2 of 2

Thread: Problem to rip CD in flac

  1. #1

    Join Date
    Apr 2018
    Posts
    1

    Problem to rip CD in flac

    Hey, here's what I get when I try to rip a CD in flac : https://image.noelshack.com/fichiers...rampscreen.png

    Then I get a folder with unreadables files.

    Size of the folder is 1.23 mo instead of 329... (it depends of the CD)


    I just made another try after a full uninstall of dbpoweramp.

    When I rip in mp3... it does work.

    I don't get it at all !


    Logs :

    Information ripping to FLAC, 'Track 1' to 'D:\Musique\Muse\Showbiz\01 Muse - Sunburn.flac'
    Track 1: Ripped LBA 0 to 17597 (3:54) in 0:12. Filename: D:\Musique\Muse\Showbiz\01 Muse - Sunburn._
    AccurateRip: Accurate (confidence 200) [Pass 1]
    CRC32: 55BE1344 AccurateRip CRC: 2520E105 (CRCv2) [DiscID: 012-0016afb0-00d3040d-990ba90c-1]
    AccurateRip Verified Confidence 200 [CRCv2 2520e105]
    AccurateRip Verified Confidence 200 [CRCv1 5bbcc3ad]
    AccurateRip Verified Confidence 200 [CRCv2 2520e105]
    AccurateRip Verified Confidence 200 [CRCv1 5bbcc3ad]

    Information ripping to FLAC, 'Track 2' to 'D:\Musique\Muse\Showbiz\02 Muse - Muscle Museum.flac'
    Track 2: Ripped LBA 17597 to 37302 (4:22) in 0:12. Filename: D:\Musique\Muse\Showbiz\02 Muse - Muscle Museum._
    AccurateRip: Accurate (confidence 200) [Pass 1]
    CRC32: 5783D474 AccurateRip CRC: 43F3D4EC (CRCv2) [DiscID: 012-0016afb0-00d3040d-990ba90c-2]
    AccurateRip Verified Confidence 200 [CRCv2 43f3d4ec]
    AccurateRip Verified Confidence 200 [CRCv1 ac96d58f]
    AccurateRip Verified Confidence 200 [CRCv2 43f3d4ec]
    AccurateRip Verified Confidence 200 [CRCv1 ac96d58f]

    Information ripping to FLAC, 'Track 3' to 'D:\Musique\Muse\Showbiz\03 Muse - Fillip.flac'
    Track 3: Ripped LBA 37302 to 55430 (4:01) in 0:10. Filename: D:\Musique\Muse\Showbiz\03 Muse - Fillip._
    AccurateRip: Accurate (confidence 200) [Pass 1]
    CRC32: DFF1D9FD AccurateRip CRC: 73E0D41F (CRCv2) [DiscID: 012-0016afb0-00d3040d-990ba90c-3]
    AccurateRip Verified Confidence 200 [CRCv2 73e0d41f]
    AccurateRip Verified Confidence 200 [CRCv1 da263667]
    AccurateRip Verified Confidence 200 [CRCv2 73e0d41f]
    AccurateRip Verified Confidence 200 [CRCv1 da263667]

    Information ripping to FLAC, 'Track 4' to 'D:\Musique\Muse\Showbiz\04 Muse - Falling Down.flac'
    Track 4: Ripped LBA 55430 to 75965 (4:33) in 0:10. Filename: D:\Musique\Muse\Showbiz\04 Muse - Falling Down._
    AccurateRip: Accurate (confidence 200) [Pass 1]
    CRC32: 25995254 AccurateRip CRC: CA9F39B2 (CRCv2) [DiscID: 012-0016afb0-00d3040d-990ba90c-4]
    AccurateRip Verified Confidence 200 [CRCv2 ca9f39b2]
    AccurateRip Verified Confidence 200 [CRCv1 f94c53a0]
    AccurateRip Verified Confidence 200 [CRCv2 ca9f39b2]
    AccurateRip Verified Confidence 200 [CRCv1 f94c53a0]

    Information ripping to FLAC, 'Track 5' to 'D:\Musique\Muse\Showbiz\05 Muse - Cave.flac'
    Track 5: Ripped LBA 75965 to 97402 (4:45) in 0:10. Filename: D:\Musique\Muse\Showbiz\05 Muse - Cave._
    AccurateRip: Accurate (confidence 200) [Pass 1]
    CRC32: E67DF4D0 AccurateRip CRC: 2FC33D1D (CRCv2) [DiscID: 012-0016afb0-00d3040d-990ba90c-5]
    AccurateRip Verified Confidence 200 [CRCv2 2fc33d1d]
    AccurateRip Verified Confidence 200 [CRCv1 23cc8b76]
    AccurateRip Verified Confidence 200 [CRCv2 2fc33d1d]
    AccurateRip Verified Confidence 200 [CRCv1 23cc8b76]

    Information ripping to FLAC, 'Track 6' to 'D:\Musique\Muse\Showbiz\06 Muse - Showbiz.flac'
    Track 6: Ripped LBA 97402 to 121185 (5:17) in 0:11. Filename: D:\Musique\Muse\Showbiz\06 Muse - Showbiz._
    AccurateRip: Accurate (confidence 200) [Pass 1]
    CRC32: 0562D9DB AccurateRip CRC: 7F220317 (CRCv2) [DiscID: 012-0016afb0-00d3040d-990ba90c-6]
    AccurateRip Verified Confidence 200 [CRCv2 7f220317]
    AccurateRip Verified Confidence 200 [CRCv1 6a3bd74b]
    AccurateRip Verified Confidence 200 [CRCv2 7f220317]
    AccurateRip Verified Confidence 200 [CRCv1 6a3bd74b]

    Information ripping to FLAC, 'Track 7' to 'D:\Musique\Muse\Showbiz\07 Muse - Unintended.flac'
    Track 7: Ripped LBA 121185 to 138955 (3:56) in 0:07. Filename: D:\Musique\Muse\Showbiz\07 Muse - Unintended._
    AccurateRip: Accurate (confidence 200) [Pass 1]
    CRC32: 0EA5E86E AccurateRip CRC: F7003BED (CRCv2) [DiscID: 012-0016afb0-00d3040d-990ba90c-7]
    AccurateRip Verified Confidence 200 [CRCv2 f7003bed]
    AccurateRip Verified Confidence 200 [CRCv1 f93f27ee]
    AccurateRip Verified Confidence 200 [CRCv2 f7003bed]
    AccurateRip Verified Confidence 200 [CRCv1 f93f27ee]

    Information ripping to FLAC, 'Track 8' to 'D:\Musique\Muse\Showbiz\08 Muse - Uno.flac'
    Track 8: Ripped LBA 138955 to 155350 (3:38) in 0:06. Filename: D:\Musique\Muse\Showbiz\08 Muse - Uno._
    AccurateRip: Accurate (confidence 200) [Pass 1]
    CRC32: 6C82E632 AccurateRip CRC: 544F8D97 (CRCv2) [DiscID: 012-0016afb0-00d3040d-990ba90c-8]
    AccurateRip Verified Confidence 200 [CRCv2 544f8d97]
    AccurateRip Verified Confidence 200 [CRCv1 a5b978c1]
    AccurateRip Verified Confidence 200 [CRCv2 544f8d97]
    AccurateRip Verified Confidence 200 [CRCv1 a5b978c1]

    Information ripping to FLAC, 'Track 9' to 'D:\Musique\Muse\Showbiz\09 Muse - Sober.flac'
    Track 9: Ripped LBA 155350 to 173667 (4:04) in 0:07. Filename: D:\Musique\Muse\Showbiz\09 Muse - Sober._
    AccurateRip: Accurate (confidence 200) [Pass 1]
    CRC32: 89491BF9 AccurateRip CRC: 83BDBE90 (CRCv2) [DiscID: 012-0016afb0-00d3040d-990ba90c-9]
    AccurateRip Verified Confidence 200 [CRCv2 83bdbe90]
    AccurateRip Verified Confidence 200 [CRCv1 6ac8cd72]
    AccurateRip Verified Confidence 200 [CRCv2 83bdbe90]
    AccurateRip Verified Confidence 200 [CRCv1 6ac8cd72]

    Information ripping to FLAC, 'Track 10' to 'D:\Musique\Muse\Showbiz\10 Muse - Escape.flac'
    Track 10: Ripped LBA 173667 to 189535 (3:31) in 0:06. Filename: D:\Musique\Muse\Showbiz\10 Muse - Escape._
    AccurateRip: Accurate (confidence 200) [Pass 1]
    CRC32: D3F4ED85 AccurateRip CRC: C61A5758 (CRCv2) [DiscID: 012-0016afb0-00d3040d-990ba90c-10]
    AccurateRip Verified Confidence 200 [CRCv2 c61a5758]
    AccurateRip Verified Confidence 200 [CRCv1 160d4f78]
    AccurateRip Verified Confidence 200 [CRCv2 c61a5758]
    AccurateRip Verified Confidence 200 [CRCv1 160d4f78]

    Information ripping to FLAC, 'Track 11' to 'D:\Musique\Muse\Showbiz\11 Muse - Overdue.flac'
    Track 11: Ripped LBA 189535 to 200505 (2:26) in 0:04. Filename: D:\Musique\Muse\Showbiz\11 Muse - Overdue._
    AccurateRip: Accurate (confidence 200) [Pass 1]
    CRC32: B24FD0A9 AccurateRip CRC: 57E3FA6F (CRCv2) [DiscID: 012-0016afb0-00d3040d-990ba90c-11]
    AccurateRip Verified Confidence 200 [CRCv2 57e3fa6f]
    AccurateRip Verified Confidence 200 [CRCv1 d8ec6f05]
    AccurateRip Verified Confidence 200 [CRCv2 57e3fa6f]
    AccurateRip Verified Confidence 200 [CRCv1 d8ec6f05]

    Information ripping to FLAC, 'Track 12' to 'D:\Musique\Muse\Showbiz\12 Muse - Hate This & I'll Love You.flac'
    Track 12: Ripped LBA 200505 to 223875 (5:11) in 0:08. Filename: D:\Musique\Muse\Showbiz\12 Muse - Hate This & I'll Love You._
    AccurateRip: Accurate (confidence 200) [Pass 1]
    CRC32: F0B1FE2F AccurateRip CRC: 2571EF7A (CRCv2) [DiscID: 012-0016afb0-00d3040d-990ba90c-12]
    AccurateRip Verified Confidence 200 [CRCv2 2571ef7a]
    AccurateRip Verified Confidence 200 [CRCv1 4aebb75f]
    AccurateRip Verified Confidence 200 [CRCv2 2571ef7a]
    AccurateRip Verified Confidence 200 [CRCv1 4aebb75f]


    I tried on several CDs.

    Thanks.

  2. #2
    Da Man
    Join Date
    Apr 2002
    Posts
    37,344

    Re: Problem to rip CD in flac


Posting Permissions

  • You may not post new threads
  • You may not post replies
  • You may not post attachments
  • You may not edit your posts
  •  

Copyright 2018 Illustrate. All Rights Reserved.