title
Products            Buy            Support Forum            Professional            About            Codec Central
 
Results 1 to 2 of 2

Thread: Inaccurate but Secure

  1. #1

    Inaccurate but Secure

    Hello! I was just wondering what it meant when it says that a rip is "Inaccurate but Secure (Warning)"? I was ripping a CD, and three of the tracks had that message. They had very high confidence numbers, while the other tracks (which were all accurate) had relatively low numbers. Does this mean that those three tracks for sure have errors? What about the rest of the album, did it rip okay as well? What would "Inaccurate and Insecure" mean?

    I've copied and pasted the extraction log (and bolded the three tracks in question), any comments?

    Extraction Log
    --------------

    Track 1: Ripped LBA 0 to 25165 (5:35) in 1:12. Filename: \\SERVER\Volume_1\Music\dbPoweramp\WAV\New Order\(The Best of) New Order (1994)\01 True Faith '94 New Order (The Best of) New Order.IGNORE
    AccurateRip: Accurate (confidence 12) [Pass 1]
    CRC32: 025A88AF AccurateRip CRC: AA941A79 (CRCv2) [DiscID: 016-00298805-01f1a194-ee107010-1]
    AccurateRip Verified Confidence 12 [CRCv2 aa941a79]
    AccurateRip Verified Confidence 6 [CRCv1 c1057b22]
    AccurateRip Verified Confidence 34 [CRCv2 2a8f1a7f], Using Pressing Offset -580
    AccurateRip Verified Confidence 42 [CRCv1 419b6f4e], Using Pressing Offset -580

    Track 2: Ripped LBA 25165 to 42742 (3:54) in 0:43. Filename: \\SERVER\Volume_1\Music\dbPoweramp\WAV\New Order\(The Best of) New Order (1994)\02 Bizarre Love Triangle '94 New Order (The Best of) New Order.IGNORE
    AccurateRip: Accurate (confidence 12) [Pass 1]
    CRC32: 2442989F AccurateRip CRC: 71692937 (CRCv2) [DiscID: 016-00298805-01f1a194-ee107010-2]
    AccurateRip Verified Confidence 12 [CRCv2 71692937]
    AccurateRip Verified Confidence 7 [CRCv1 42b0ce73]
    AccurateRip Verified Confidence 35 [CRCv2 d3434331], Using Pressing Offset -580
    AccurateRip Verified Confidence 42 [CRCv1 a43c3617], Using Pressing Offset -580

    Track 3: Ripped LBA 42742 to 59772 (3:47) in 0:39. Filename: \\SERVER\Volume_1\Music\dbPoweramp\WAV\New Order\(The Best of) New Order (1994)\03 1963-94 New Order (The Best of) New Order.IGNORE
    AccurateRip: Accurate (confidence 12) [Pass 1]
    CRC32: 2F92B85A AccurateRip CRC: A68D048B (CRCv2) [DiscID: 016-00298805-01f1a194-ee107010-3]
    AccurateRip Verified Confidence 12 [CRCv2 a68d048b]
    AccurateRip Verified Confidence 7 [CRCv1 434992eb]
    AccurateRip Verified Confidence 35 [CRCv2 bed91684], Using Pressing Offset -580
    AccurateRip Verified Confidence 43 [CRCv1 5cc9b557], Using Pressing Offset -580

    Track 4: Ripped LBA 59772 to 78412 (4:08) in 0:40. Filename: \\SERVER\Volume_1\Music\dbPoweramp\WAV\New Order\(The Best of) New Order (1994)\04 Regret New Order (The Best of) New Order.IGNORE
    AccurateRip: Accurate (confidence 12) [Pass 1]
    CRC32: 3CD6763F AccurateRip CRC: A3B37EC0 (CRCv2) [DiscID: 016-00298805-01f1a194-ee107010-4]
    AccurateRip Verified Confidence 12 [CRCv2 a3b37ec0]
    AccurateRip Verified Confidence 7 [CRCv1 c2b57a5c]
    AccurateRip Verified Confidence 35 [CRCv2 8c86345b], Using Pressing Offset -580
    AccurateRip Verified Confidence 42 [CRCv1 aad267e0], Using Pressing Offset -580

    Track 5: Ripped LBA 78412 to 92570 (3:08) in 0:28. Filename: \\SERVER\Volume_1\Music\dbPoweramp\WAV\New Order\(The Best of) New Order (1994)\05 Fine Time New Order (The Best of) New Order.IGNORE
    AccurateRip: Accurate (confidence 12) [Pass 1]
    CRC32: F2DC1A96 AccurateRip CRC: FD973F65 (CRCv2) [DiscID: 016-00298805-01f1a194-ee107010-5]
    AccurateRip Verified Confidence 12 [CRCv2 fd973f65]
    AccurateRip Verified Confidence 7 [CRCv1 25bbec7b]
    AccurateRip Verified Confidence 35 [CRCv2 9b65ae01], Using Pressing Offset -580
    AccurateRip Verified Confidence 43 [CRCv1 c2aff677], Using Pressing Offset -580

    Track 6: Ripped LBA 92570 to 114300 (4:49) in 0:41. Filename: \\SERVER\Volume_1\Music\dbPoweramp\WAV\New Order\(The Best of) New Order (1994)\06 The Perfect Kiss New Order (The Best of) New Order.IGNORE
    AccurateRip: Accurate (confidence 11) [Pass 1]
    CRC32: 336C863D AccurateRip CRC: CCD4DB55 (CRCv2) [DiscID: 016-00298805-01f1a194-ee107010-6]
    AccurateRip Verified Confidence 11 [CRCv2 ccd4db55]
    AccurateRip Verified Confidence 5 [CRCv1 ca1784b8]
    AccurateRip Verified Confidence 34 [CRCv2 1f9fd803], Using Pressing Offset -580
    AccurateRip Verified Confidence 43 [CRCv1 1cc3df64], Using Pressing Offset -580

    Track 7: Ripped LBA 114300 to 134060 (4:23) in 0:36. Filename: \\SERVER\Volume_1\Music\dbPoweramp\WAV\New Order\(The Best of) New Order (1994)\07 Shell Shock New Order (The Best of) New Order.IGNORE
    AccurateRip: Accurate (confidence 10) [Pass 1]
    CRC32: 0B1338BB AccurateRip CRC: 68252550 (CRCv2) [DiscID: 016-00298805-01f1a194-ee107010-7]
    AccurateRip Verified Confidence 10 [CRCv2 68252550]
    AccurateRip Verified Confidence 7 [CRCv1 22036bb2]
    AccurateRip Verified Confidence 36 [CRCv2 df87b704], Using Pressing Offset -580
    AccurateRip Verified Confidence 42 [CRCv1 9728d9fa], Using Pressing Offset -580

    Track 8: Ripped LBA 134060 to 163840 (6:37) in 8:19. Filename: \\SERVER\Volume_1\Music\dbPoweramp\WAV\New Order\(The Best of) New Order (1994)\08 Thieves Like Us New Order (The Best of) New Order.IGNORE
    AccurateRip: Inaccurate (confidence 75) Secure (Warning) [Pass 1 & 2, Ultra 1 to 4, Re-Rip 24 Frames]
    CRC32: 13439C1C AccurateRip CRC: 03C147D7 (CRCv2) [DiscID: 016-00298805-01f1a194-ee107010-8]


    Track 9: Ripped LBA 163840 to 187472 (5:15) in 0:38. Filename: \\SERVER\Volume_1\Ankur\Music\dbPoweramp\WAV\New Order\(The Best of) New Order (1994)\09 Vanishing Point New Order (The Best of) New Order.IGNORE
    AccurateRip: Accurate (confidence 12) [Pass 1]
    CRC32: 351FE48A AccurateRip CRC: 3142A92F (CRCv2) [DiscID: 016-00298805-01f1a194-ee107010-9]
    AccurateRip Verified Confidence 12 [CRCv2 3142a92f]
    AccurateRip Verified Confidence 7 [CRCv1 67acbc20]
    AccurateRip Verified Confidence 34 [CRCv2 fc9b32d1], Using Pressing Offset -580
    AccurateRip Verified Confidence 43 [CRCv1 326e0aa4], Using Pressing Offset -580

    Track 10: Ripped LBA 187472 to 207712 (4:29) in 0:31. Filename: \\SERVER\Volume_1\Music\dbPoweramp\WAV\New Order\(The Best of) New Order (1994)\10 Run 2 New Order (The Best of) New Order.IGNORE
    AccurateRip: Accurate (confidence 11) [Pass 1]
    CRC32: 88B4FC63 AccurateRip CRC: 14A45685 (CRCv2) [DiscID: 016-00298805-01f1a194-ee107010-10]
    AccurateRip Verified Confidence 11 [CRCv2 14a45685]
    AccurateRip Verified Confidence 7 [CRCv1 1974e00d]
    AccurateRip Verified Confidence 33 [CRCv2 a152789f], Using Pressing Offset -580
    AccurateRip Verified Confidence 41 [CRCv1 a23ba801], Using Pressing Offset -580

    Track 11: Ripped LBA 207712 to 225805 (4:01) in 0:27. Filename: \\SERVER\Volume_1\Music\dbPoweramp\WAV\New Order\(The Best of) New Order (1994)\11 Round & Round '94 New Order (The Best of) New Order.IGNORE
    AccurateRip: Accurate (confidence 12) [Pass 1]
    CRC32: B62B4DB8 AccurateRip CRC: 90A92096 (CRCv2) [DiscID: 016-00298805-01f1a194-ee107010-11]
    AccurateRip Verified Confidence 12 [CRCv2 90a92096]
    AccurateRip Verified Confidence 6 [CRCv1 f19df48e]
    AccurateRip Verified Confidence 32 [CRCv2 80a67bbe], Using Pressing Offset -580
    AccurateRip Verified Confidence 41 [CRCv1 e1a8b49a], Using Pressing Offset -580

    Track 12: Ripped LBA 225805 to 242215 (3:38) in 4:26. Filename: \\SERVER\Volume_1\Music\dbPoweramp\WAV\New Order\(The Best of) New Order (1994)\12 World (Price of Love) New Order (The Best of) New Order.IGNORE
    AccurateRip: Inaccurate (confidence 73) Secure (Warning) [Pass 1 & 2, Ultra 1 to 4, Re-Rip 15 Frames]
    CRC32: 814B9620 AccurateRip CRC: 6A5D53A7 (CRCv2) [DiscID: 016-00298805-01f1a194-ee107010-12]


    Track 13: Ripped LBA 242215 to 260050 (3:57) in 0:25. Filename: \\SERVER\Volume_1\Music\dbPoweramp\WAV\New Order\(The Best of) New Order (1994)\13 Ruined in a Day New Order (The Best of) New Order.IGNORE
    AccurateRip: Accurate (confidence 12) [Pass 1]
    CRC32: 88B510F7 AccurateRip CRC: 4DB5DBBB (CRCv2) [DiscID: 016-00298805-01f1a194-ee107010-13]
    AccurateRip Verified Confidence 12 [CRCv2 4db5dbbb]
    AccurateRip Verified Confidence 5 [CRCv1 be33c6d1]
    AccurateRip Verified Confidence 34 [CRCv2 e3581aca], Using Pressing Offset -580
    AccurateRip Verified Confidence 41 [CRCv1 54133af1], Using Pressing Offset -580

    Track 14: Ripped LBA 260050 to 276750 (3:42) in 3:51. Filename: \\SERVER\Volume_1\Music\dbPoweramp\WAV\New Order\(The Best of) New Order (1994)\14 Touched by the Hand of God New Order (The Best of) New Order.IGNORE
    AccurateRip: Inaccurate (confidence 74) Secure (Warning) [Pass 1 & 2, Ultra 1 to 4, Re-Rip 10 Frames]
    CRC32: ED01C7A5 AccurateRip CRC: CBA859F9 (CRCv2) [DiscID: 016-00298805-01f1a194-ee107010-14]


    Track 15: Ripped LBA 276750 to 295310 (4:07) in 0:25. Filename: \\SERVER\Volume_1\Music\dbPoweramp\WAV\New Order\(The Best of) New Order (1994)\15 Blue Monday '88 New Order (The Best of) New Order.IGNORE
    AccurateRip: Accurate (confidence 11) [Pass 1]
    CRC32: 6E2C2C89 AccurateRip CRC: B3D54E0B (CRCv2) [DiscID: 016-00298805-01f1a194-ee107010-15]
    AccurateRip Verified Confidence 11 [CRCv2 b3d54e0b]
    AccurateRip Verified Confidence 5 [CRCv1 1392eb12]
    AccurateRip Verified Confidence 31 [CRCv2 b83ee80e], Using Pressing Offset -580
    AccurateRip Verified Confidence 38 [CRCv1 1ebcd78b], Using Pressing Offset -580

    Track 16: Ripped LBA 295310 to 315622 (4:30) in 0:26. Filename: \\SERVER\Volume_1\Music\dbPoweramp\WAV\New Order\(The Best of) New Order (1994)\16 World in Motion New Order (The Best of) New Order.IGNORE
    AccurateRip: Accurate (confidence 11) [Pass 1]
    CRC32: 2B09708D AccurateRip CRC: CEE99954 (CRCv2) [DiscID: 016-00298805-01f1a194-ee107010-16]
    AccurateRip Verified Confidence 11 [CRCv2 cee99954]
    AccurateRip Verified Confidence 6 [CRCv1 509f28ee]
    AccurateRip Verified Confidence 29 [CRCv2 1b1d150], Using Pressing Offset -580
    AccurateRip Verified Confidence 34 [CRCv1 849c4275], Using Pressing Offset -580

    --------------

    16 Tracks Ripped: 13 Accurate, 3 Secure (Warning)

  2. #2
    Administrator
    Join Date
    Apr 2002
    Posts
    38,665

    Re: Inaccurate but Secure

    It means your rip has errors. Even if it was reported as Secure without the warning, it would still have errors, as it miss matches accuraterip (and the confidences in accuraterip are greater than 1).

Tags for this Thread

Posting Permissions

  • You may not post new threads
  • You may not post replies
  • You may not post attachments
  • You may not edit your posts
  •