title
Products            Buy            Support Forum            Professional            About            Codec Central
 
Results 1 to 7 of 7

Thread: What does a green colored CRC mean?

  1. #1

    Join Date
    Jun 2015
    Posts
    18

    Question What does a green colored CRC mean?

    On one CD that I just read in, I see a green colored CRC value on the first track - the C0CACDC1 value shown below. The rest are the usual black text.

    The ripper log says that all is normal (I think) and I don't remember if I have seen this before. So, what does this green color mean?

    Z

    Here is the ripper log for reference:

    Information ripping to FLAC, 'Track 1' to 'F:\Music\Joshua Rifkin\Scott Joplin; Digital Ragtime\01 Maple Leaf Rag.flac'
    Track 1: Ripped LBA 0 to 14027 (3:07) in 0:17. Filename: F:\Music\Joshua Rifkin\Scott Joplin; Digital Ragtime\01 Maple Leaf Rag.flac
    AccurateRip: Accurate (confidence 7) [Pass 1]
    CRC32: C0CACDC1 AccurateRip CRC: A07B0F1A (CRCv2) [DiscID: 015-0022cf1e-018c85e4-c70eb30f-1]
    AccurateRip Verified Confidence 7 [CRCv2 a07b0f1a]
    AccurateRip Verified Confidence 8 [CRCv1 73e8366a]
    AccurateRip Verified Confidence 7 [CRCv2 a07b0f1a]
    AccurateRip Verified Confidence 8 [CRCv1 73e8366a]

    Information ripping to FLAC, 'Track 2' to 'F:\Music\Joshua Rifkin\Scott Joplin; Digital Ragtime\02 The Entertainer.flac'
    Track 2: Ripped LBA 14027 to 38360 (5:24) in 0:26. Filename: F:\Music\Joshua Rifkin\Scott Joplin; Digital Ragtime\02 The Entertainer.flac
    AccurateRip: Accurate (confidence 7) [Pass 1]
    CRC32: 084215E0 AccurateRip CRC: D57FCE69 (CRCv2) [DiscID: 015-0022cf1e-018c85e4-c70eb30f-2]
    AccurateRip Verified Confidence 7 [CRCv2 d57fce69]
    AccurateRip Verified Confidence 8 [CRCv1 8293a112]
    AccurateRip Verified Confidence 7 [CRCv2 d57fce69]
    AccurateRip Verified Confidence 8 [CRCv1 8293a112]

    Information ripping to FLAC, 'Track 3' to 'F:\Music\Joshua Rifkin\Scott Joplin; Digital Ragtime\03 The Easy Winners.flac'
    Track 3: Ripped LBA 38360 to 57155 (4:10) in 0:18. Filename: F:\Music\Joshua Rifkin\Scott Joplin; Digital Ragtime\03 The Easy Winners.flac
    AccurateRip: Accurate (confidence 7) [Pass 1]
    CRC32: 8FA003E2 AccurateRip CRC: 44E50B75 (CRCv2) [DiscID: 015-0022cf1e-018c85e4-c70eb30f-3]
    AccurateRip Verified Confidence 7 [CRCv2 44e50b75]
    AccurateRip Verified Confidence 8 [CRCv1 16c0976f]
    AccurateRip Verified Confidence 7 [CRCv2 44e50b75]
    AccurateRip Verified Confidence 8 [CRCv1 16c0976f]

    Information ripping to FLAC, 'Track 4' to 'F:\Music\Joshua Rifkin\Scott Joplin; Digital Ragtime\04 Gladiolus Rag.flac'
    Track 4: Ripped LBA 57155 to 77662 (4:33) in 0:18. Filename: F:\Music\Joshua Rifkin\Scott Joplin; Digital Ragtime\04 Gladiolus Rag.flac
    AccurateRip: Accurate (confidence 7) [Pass 1]
    CRC32: 0345837C AccurateRip CRC: 77977093 (CRCv2) [DiscID: 015-0022cf1e-018c85e4-c70eb30f-4]
    AccurateRip Verified Confidence 7 [CRCv2 77977093]
    AccurateRip Verified Confidence 8 [CRCv1 3676046d]
    AccurateRip Verified Confidence 7 [CRCv2 77977093]
    AccurateRip Verified Confidence 8 [CRCv1 3676046d]

    Information ripping to FLAC, 'Track 5' to 'F:\Music\Joshua Rifkin\Scott Joplin; Digital Ragtime\05 Pine Apple Rag.flac'
    Track 5: Ripped LBA 77662 to 93197 (3:27) in 0:13. Filename: F:\Music\Joshua Rifkin\Scott Joplin; Digital Ragtime\05 Pine Apple Rag.flac
    AccurateRip: Accurate (confidence 7) [Pass 1]
    CRC32: 18D71953 AccurateRip CRC: C463CC0B (CRCv2) [DiscID: 015-0022cf1e-018c85e4-c70eb30f-5]
    AccurateRip Verified Confidence 7 [CRCv2 c463cc0b]
    AccurateRip Verified Confidence 8 [CRCv1 2da7b0b7]
    AccurateRip Verified Confidence 7 [CRCv2 c463cc0b]
    AccurateRip Verified Confidence 8 [CRCv1 2da7b0b7]

    Information ripping to FLAC, 'Track 6' to 'F:\Music\Joshua Rifkin\Scott Joplin; Digital Ragtime\06 Bethena (Waltz).flac'
    Track 6: Ripped LBA 93197 to 114137 (4:39) in 0:17. Filename: F:\Music\Joshua Rifkin\Scott Joplin; Digital Ragtime\06 Bethena (Waltz).flac
    AccurateRip: Accurate (confidence 7) [Pass 1]
    CRC32: F9B68110 AccurateRip CRC: AD17F9CA (CRCv2) [DiscID: 015-0022cf1e-018c85e4-c70eb30f-6]
    AccurateRip Verified Confidence 7 [CRCv2 ad17f9ca]
    AccurateRip Verified Confidence 8 [CRCv1 4f84a66]
    AccurateRip Verified Confidence 7 [CRCv2 ad17f9ca]
    AccurateRip Verified Confidence 8 [CRCv1 4f84a66]

    Information ripping to FLAC, 'Track 7' to 'F:\Music\Joshua Rifkin\Scott Joplin; Digital Ragtime\07 The Favorite.flac'
    Track 7: Ripped LBA 114137 to 128015 (3:05) in 0:10. Filename: F:\Music\Joshua Rifkin\Scott Joplin; Digital Ragtime\07 The Favorite.flac
    AccurateRip: Accurate (confidence 7) [Pass 1]
    CRC32: D0B9D232 AccurateRip CRC: 0E74174E (CRCv2) [DiscID: 015-0022cf1e-018c85e4-c70eb30f-7]
    AccurateRip Verified Confidence 7 [CRCv2 e74174e]
    AccurateRip Verified Confidence 8 [CRCv1 f5b93c63]
    AccurateRip Verified Confidence 7 [CRCv2 e74174e]
    AccurateRip Verified Confidence 8 [CRCv1 f5b93c63]

    Information ripping to FLAC, 'Track 8' to 'F:\Music\Joshua Rifkin\Scott Joplin; Digital Ragtime\08 Stoptime Rag.flac'
    Track 8: Ripped LBA 128015 to 141400 (2:58) in 0:10. Filename: F:\Music\Joshua Rifkin\Scott Joplin; Digital Ragtime\08 Stoptime Rag.flac
    AccurateRip: Accurate (confidence 7) [Pass 1]
    CRC32: D22612FC AccurateRip CRC: 941B53E5 (CRCv2) [DiscID: 015-0022cf1e-018c85e4-c70eb30f-8]
    AccurateRip Verified Confidence 7 [CRCv2 941b53e5]
    AccurateRip Verified Confidence 8 [CRCv1 ac35b55d]
    AccurateRip Verified Confidence 7 [CRCv2 941b53e5]
    AccurateRip Verified Confidence 8 [CRCv1 ac35b55d]

    Information ripping to FLAC, 'Track 9' to 'F:\Music\Joshua Rifkin\Scott Joplin; Digital Ragtime\09 Heliotrope Bouquet.flac'
    Track 9: Ripped LBA 141400 to 168070 (5:55) in 0:19. Filename: F:\Music\Joshua Rifkin\Scott Joplin; Digital Ragtime\09 Heliotrope Bouquet.flac
    AccurateRip: Accurate (confidence 7) [Pass 1]
    CRC32: 677E4AC8 AccurateRip CRC: FF3947F4 (CRCv2) [DiscID: 015-0022cf1e-018c85e4-c70eb30f-9]
    AccurateRip Verified Confidence 7 [CRCv2 ff3947f4]
    AccurateRip Verified Confidence 8 [CRCv1 99d3aaba]
    AccurateRip Verified Confidence 7 [CRCv2 ff3947f4]
    AccurateRip Verified Confidence 8 [CRCv1 99d3aaba]

    Information ripping to FLAC, 'Track 10' to 'F:\Music\Joshua Rifkin\Scott Joplin; Digital Ragtime\10 Paragon Rag.flac'
    Track 10: Ripped LBA 168070 to 185412 (3:51) in 0:11. Filename: F:\Music\Joshua Rifkin\Scott Joplin; Digital Ragtime\10 Paragon Rag.flac
    AccurateRip: Accurate (confidence 7) [Pass 1]
    CRC32: 251B05FE AccurateRip CRC: 8FC1B068 (CRCv2) [DiscID: 015-0022cf1e-018c85e4-c70eb30f-10]
    AccurateRip Verified Confidence 7 [CRCv2 8fc1b068]
    AccurateRip Verified Confidence 7 [CRCv1 3224566e]
    AccurateRip Verified Confidence 7 [CRCv2 8fc1b068]
    AccurateRip Verified Confidence 7 [CRCv1 3224566e]

    Information ripping to FLAC, 'Track 11' to 'F:\Music\Joshua Rifkin\Scott Joplin; Digital Ragtime\11 Solace (Mexican Serenade).flac'
    Track 11: Ripped LBA 185412 to 217380 (7:06) in 0:21. Filename: F:\Music\Joshua Rifkin\Scott Joplin; Digital Ragtime\11 Solace (Mexican Serenade).flac
    AccurateRip: Accurate (confidence 7) [Pass 1]
    CRC32: 95AD1C72 AccurateRip CRC: D3AC3E82 (CRCv2) [DiscID: 015-0022cf1e-018c85e4-c70eb30f-11]
    AccurateRip Verified Confidence 7 [CRCv2 d3ac3e82]
    AccurateRip Verified Confidence 8 [CRCv1 dd575194]
    AccurateRip Verified Confidence 7 [CRCv2 d3ac3e82]
    AccurateRip Verified Confidence 8 [CRCv1 dd575194]

    Information ripping to FLAC, 'Track 12' to 'F:\Music\Joshua Rifkin\Scott Joplin; Digital Ragtime\12 Magnetic Rag.flac'
    Track 12: Ripped LBA 217380 to 240002 (5:01) in 0:14. Filename: F:\Music\Joshua Rifkin\Scott Joplin; Digital Ragtime\12 Magnetic Rag.flac
    AccurateRip: Accurate (confidence 7) [Pass 1]
    CRC32: D07BC824 AccurateRip CRC: E96E6239 (CRCv2) [DiscID: 015-0022cf1e-018c85e4-c70eb30f-12]
    AccurateRip Verified Confidence 7 [CRCv2 e96e6239]
    AccurateRip Verified Confidence 8 [CRCv1 7bfcd4]
    AccurateRip Verified Confidence 7 [CRCv2 e96e6239]
    AccurateRip Verified Confidence 8 [CRCv1 7bfcd4]

    Information ripping to FLAC, 'Track 13' to 'F:\Music\Joshua Rifkin\Scott Joplin; Digital Ragtime\13 A Breeze From Alabama.flac'
    Track 13: Ripped LBA 240002 to 255887 (3:31) in 0:09. Filename: F:\Music\Joshua Rifkin\Scott Joplin; Digital Ragtime\13 A Breeze From Alabama.flac
    AccurateRip: Accurate (confidence 7) [Pass 1]
    CRC32: ECED2742 AccurateRip CRC: EAD2C562 (CRCv2) [DiscID: 015-0022cf1e-018c85e4-c70eb30f-13]
    AccurateRip Verified Confidence 7 [CRCv2 ead2c562]
    AccurateRip Verified Confidence 7 [CRCv1 869fe7d7]
    AccurateRip Verified Confidence 7 [CRCv2 ead2c562]
    AccurateRip Verified Confidence 7 [CRCv1 869fe7d7]

    Information ripping to FLAC, 'Track 14' to 'F:\Music\Joshua Rifkin\Scott Joplin; Digital Ragtime\14 Pleasant Moments (Waltz).flac'
    Track 14: Ripped LBA 255887 to 268302 (2:45) in 0:07. Filename: F:\Music\Joshua Rifkin\Scott Joplin; Digital Ragtime\14 Pleasant Moments (Waltz).flac
    AccurateRip: Accurate (confidence 6) [Pass 1]
    CRC32: 0E5996AC AccurateRip CRC: 3664EB09 (CRCv2) [DiscID: 015-0022cf1e-018c85e4-c70eb30f-14]
    AccurateRip Verified Confidence 6 [CRCv2 3664eb09]
    AccurateRip Verified Confidence 7 [CRCv1 2546b485]
    AccurateRip Verified Confidence 6 [CRCv2 3664eb09]
    AccurateRip Verified Confidence 7 [CRCv1 2546b485]

    Information ripping to FLAC, 'Track 15' to 'F:\Music\Joshua Rifkin\Scott Joplin; Digital Ragtime\15 Wall Street Rag.flac'
    Track 15: Ripped LBA 268302 to 282240 (3:05) in 0:08. Filename: F:\Music\Joshua Rifkin\Scott Joplin; Digital Ragtime\15 Wall Street Rag.flac
    AccurateRip: Accurate (confidence 7) [Pass 1]
    CRC32: 3E014AE7 AccurateRip CRC: A47A9B19 (CRCv2) [DiscID: 015-0022cf1e-018c85e4-c70eb30f-15]
    AccurateRip Verified Confidence 7 [CRCv2 a47a9b19]
    AccurateRip Verified Confidence 8 [CRCv1 57ddbe41]
    AccurateRip Verified Confidence 7 [CRCv2 a47a9b19]
    AccurateRip Verified Confidence 8 [CRCv1 57ddbe41]

  2. #2
    dBpoweramp Guru
    Join Date
    Apr 2015
    Location
    England
    Posts
    695

    Re: What does a green colored CRC mean?

    [QUOTE=szhosain;166115]On one CD that I just read in, I see a green colored CRC value on the first track - the C0CACDC1 value shown below. The rest are the usual black text.

    The ripper log says that all is normal (I think) and I don't remember if I have seen this before. So, what does this green color mean?

    Z

    Here is the ripper log for reference:

    Information ripping to FLAC, 'Track 1' to 'F:\Music\Joshua Rifkin\Scott Joplin; Digital Ragtime\01 Maple Leaf Rag.flac'
    Track 1: Ripped LBA 0 to 14027 (3:07) in 0:17. Filename: F:\Music\Joshua Rifkin\Scott Joplin; Digital Ragtime\01 Maple Leaf Rag.flac
    AccurateRip: Accurate (confidence 7) [Pass 1]
    CRC32: C0CACDC1 AccurateRip CRC: A07B0F1A (CRCv2) [DiscID: 015-0022cf1e-018c85e4-c70eb30f-1]
    AccurateRip Verified Confidence 7 [CRCv2 a07b0f1a]
    AccurateRip Verified Confidence 8 [CRCv1 73e8366a]
    AccurateRip Verified Confidence 7 [CRCv2 a07b0f1a]
    AccurateRip Verified Confidence 8 [CRCv1 73e8366a]

    Information ripping to FLAC, 'Track 2' to 'F:\Music\Joshua Rifkin\Scott Joplin; Digital Ragtime\02 The Entertainer.flac'
    Track 2: Ripped LBA 14027 to 38360 (5:24) in 0:26. Filename: F:\Music\Joshua Rifkin\Scott Joplin; Digital Ragtime\02 The Entertainer.flac
    AccurateRip: Accurate (confidence 7) [Pass 1]
    CRC32: 084215E0 AccurateRip CRC: D57FCE69 (CRCv2) [DiscID: 015-0022cf1e-018c85e4-c70eb30f-2]
    AccurateRip Verified Confidence 7 [CRCv2 d57fce69]
    AccurateRip Verified Confidence 8 [CRCv1 8293a112]
    AccurateRip Verified Confidence 7 [CRCv2 d57fce69]
    AccurateRip Verified Confidence 8 [CRCv1 8293a112]

    Information ripping to FLAC, 'Track 3' to 'F:\Music\Joshua Rifkin\Scott Joplin; Digital Ragtime\03 The Easy Winners.flac'
    Track 3: Ripped LBA 38360 to 57155 (4:10) in 0:18. Filename: F:\Music\Joshua Rifkin\Scott Joplin; Digital Ragtime\03 The Easy Winners.flac
    AccurateRip: Accurate (confidence 7) [Pass 1]
    CRC32: 8FA003E2 AccurateRip CRC: 44E50B75 (CRCv2) [DiscID: 015-0022cf1e-018c85e4-c70eb30f-3]
    AccurateRip Verified Confidence 7 [CRCv2 44e50b75]
    AccurateRip Verified Confidence 8 [CRCv1 16c0976f]
    AccurateRip Verified Confidence 7 [CRCv2 44e50b75]
    AccurateRip Verified Confidence 8 [CRCv1 16c0976f]

    Information ripping to FLAC, 'Track 4' to 'F:\Music\Joshua Rifkin\Scott Joplin; Digital Ragtime\04 Gladiolus Rag.flac'
    Track 4: Ripped LBA 57155 to 77662 (4:33) in 0:18. Filename: F:\Music\Joshua Rifkin\Scott Joplin; Digital Ragtime\04 Gladiolus Rag.flac
    AccurateRip: Accurate (confidence 7) [Pass 1]
    CRC32: 0345837C AccurateRip CRC: 77977093 (CRCv2) [DiscID: 015-0022cf1e-018c85e4-c70eb30f-4]
    AccurateRip Verified Confidence 7 [CRCv2 77977093]
    AccurateRip Verified Confidence 8 [CRCv1 3676046d]
    AccurateRip Verified Confidence 7 [CRCv2 77977093]
    AccurateRip Verified Confidence 8 [CRCv1 3676046d]

    Information ripping to FLAC, 'Track 5' to 'F:\Music\Joshua Rifkin\Scott Joplin; Digital Ragtime\05 Pine Apple Rag.flac'
    Track 5: Ripped LBA 77662 to 93197 (3:27) in 0:13. Filename: F:\Music\Joshua Rifkin\Scott Joplin; Digital Ragtime\05 Pine Apple Rag.flac
    AccurateRip: Accurate (confidence 7) [Pass 1]
    CRC32: 18D71953 AccurateRip CRC: C463CC0B (CRCv2) [DiscID: 015-0022cf1e-018c85e4-c70eb30f-5]
    AccurateRip Verified Confidence 7 [CRCv2 c463cc0b]
    AccurateRip Verified Confidence 8 [CRCv1 2da7b0b7]
    AccurateRip Verified Confidence 7 [CRCv2 c463cc0b]
    AccurateRip Verified Confidence 8 [CRCv1 2da7b0b7]

    Information ripping to FLAC, 'Track 6' to 'F:\Music\Joshua Rifkin\Scott Joplin; Digital Ragtime\06 Bethena (Waltz).flac'
    Track 6: Ripped LBA 93197 to 114137 (4:39) in 0:17. Filename: F:\Music\Joshua Rifkin\Scott Joplin; Digital Ragtime\06 Bethena (Waltz).flac
    AccurateRip: Accurate (confidence 7) [Pass 1]
    CRC32: F9B68110 AccurateRip CRC: AD17F9CA (CRCv2) [DiscID: 015-0022cf1e-018c85e4-c70eb30f-6]
    AccurateRip Verified Confidence 7 [CRCv2 ad17f9ca]
    AccurateRip Verified Confidence 8 [CRCv1 4f84a66]
    AccurateRip Verified Confidence 7 [CRCv2 ad17f9ca]
    AccurateRip Verified Confidence 8 [CRCv1 4f84a66]

    Information ripping to FLAC, 'Track 7' to 'F:\Music\Joshua Rifkin\Scott Joplin; Digital Ragtime\07 The Favorite.flac'
    Track 7: Ripped LBA 114137 to 128015 (3:05) in 0:10. Filename: F:\Music\Joshua Rifkin\Scott Joplin; Digital Ragtime\07 The Favorite.flac
    AccurateRip: Accurate (confidence 7) [Pass 1]
    CRC32: D0B9D232 AccurateRip CRC: 0E74174E (CRCv2) [DiscID: 015-0022cf1e-018c85e4-c70eb30f-7]
    AccurateRip Verified Confidence 7 [CRCv2 e74174e]
    AccurateRip Verified Confidence 8 [CRCv1 f5b93c63]
    AccurateRip Verified Confidence 7 [CRCv2 e74174e]
    AccurateRip Verified Confidence 8 [CRCv1 f5b93c63]

    Information ripping to FLAC, 'Track 8' to 'F:\Music\Joshua Rifkin\Scott Joplin; Digital Ragtime\08 Stoptime Rag.flac'
    Track 8: Ripped LBA 128015 to 141400 (2:58) in 0:10. Filename: F:\Music\Joshua Rifkin\Scott Joplin; Digital Ragtime\08 Stoptime Rag.flac
    AccurateRip: Accurate (confidence 7) [Pass 1]
    CRC32: D22612FC AccurateRip CRC: 941B53E5 (CRCv2) [DiscID: 015-0022cf1e-018c85e4-c70eb30f-8]
    AccurateRip Verified Confidence 7 [CRCv2 941b53e5]
    AccurateRip Verified Confidence 8 [CRCv1 ac35b55d]
    AccurateRip Verified Confidence 7 [CRCv2 941b53e5]
    AccurateRip Verified Confidence 8 [CRCv1 ac35b55d]

    Information ripping to FLAC, 'Track 9' to 'F:\Music\Joshua Rifkin\Scott Joplin; Digital Ragtime\09 Heliotrope Bouquet.flac'
    Track 9: Ripped LBA 141400 to 168070 (5:55) in 0:19. Filename: F:\Music\Joshua Rifkin\Scott Joplin; Digital Ragtime\09 Heliotrope Bouquet.flac
    AccurateRip: Accurate (confidence 7) [Pass 1]
    CRC32: 677E4AC8 AccurateRip CRC: FF3947F4 (CRCv2) [DiscID: 015-0022cf1e-018c85e4-c70eb30f-9]
    AccurateRip Verified Confidence 7 [CRCv2 ff3947f4]
    AccurateRip Verified Confidence 8 [CRCv1 99d3aaba]
    AccurateRip Verified Confidence 7 [CRCv2 ff3947f4]
    AccurateRip Verified Confidence 8 [CRCv1 99d3aaba]

    Information ripping to FLAC, 'Track 10' to 'F:\Music\Joshua Rifkin\Scott Joplin; Digital Ragtime\10 Paragon Rag.flac'
    Track 10: Ripped LBA 168070 to 185412 (3:51) in 0:11. Filename: F:\Music\Joshua Rifkin\Scott Joplin; Digital Ragtime\10 Paragon Rag.flac
    AccurateRip: Accurate (confidence 7) [Pass 1]
    CRC32: 251B05FE AccurateRip CRC: 8FC1B068 (CRCv2) [DiscID: 015-0022cf1e-018c85e4-c70eb30f-10]
    AccurateRip Verified Confidence 7 [CRCv2 8fc1b068]
    AccurateRip Verified Confidence 7 [CRCv1 3224566e]
    AccurateRip Verified Confidence 7 [CRCv2 8fc1b068]
    AccurateRip Verified Confidence 7 [CRCv1 3224566e]

    Information ripping to FLAC, 'Track 11' to 'F:\Music\Joshua Rifkin\Scott Joplin; Digital Ragtime\11 Solace (Mexican Serenade).flac'
    Track 11: Ripped LBA 185412 to 217380 (7:06) in 0:21. Filename: F:\Music\Joshua Rifkin\Scott Joplin; Digital Ragtime\11 Solace (Mexican Serenade).flac
    AccurateRip: Accurate (confidence 7) [Pass 1]
    CRC32: 95AD1C72 AccurateRip CRC: D3AC3E82 (CRCv2) [DiscID: 015-0022cf1e-018c85e4-c70eb30f-11]
    AccurateRip Verified Confidence 7 [CRCv2 d3ac3e82]
    AccurateRip Verified Confidence 8 [CRCv1 dd575194]
    AccurateRip Verified Confidence 7 [CRCv2 d3ac3e82]
    AccurateRip Verified Confidence 8 [CRCv1 dd575194]

    Information ripping to FLAC, 'Track 12' to 'F:\Music\Joshua Rifkin\Scott Joplin; Digital Ragtime\12 Magnetic Rag.flac'
    Track 12: Ripped LBA 217380 to 240002 (5:01) in 0:14. Filename: F:\Music\Joshua Rifkin\Scott Joplin; Digital Ragtime\12 Magnetic Rag.flac
    AccurateRip: Accurate (confidence 7) [Pass 1]
    CRC32: D07BC824 AccurateRip CRC: E96E6239 (CRCv2) [DiscID: 015-0022cf1e-018c85e4-c70eb30f-12]
    AccurateRip Verified Confidence 7 [CRCv2 e96e6239]
    AccurateRip Verified Confidence 8 [CRCv1 7bfcd4]
    AccurateRip Verified Confidence 7 [CRCv2 e96e6239]
    AccurateRip Verified Confidence 8 [CRCv1 7bfcd4]

    Information ripping to FLAC, 'Track 13' to 'F:\Music\Joshua Rifkin\Scott Joplin; Digital Ragtime\13 A Breeze From Alabama.flac'
    Track 13: Ripped LBA 240002 to 255887 (3:31) in 0:09. Filename: F:\Music\Joshua Rifkin\Scott Joplin; Digital Ragtime\13 A Breeze From Alabama.flac
    AccurateRip: Accurate (confidence 7) [Pass 1]
    CRC32: ECED2742 AccurateRip CRC: EAD2C562 (CRCv2) [DiscID: 015-0022cf1e-018c85e4-c70eb30f-13]
    AccurateRip Verified Confidence 7 [CRCv2 ead2c562]
    AccurateRip Verified Confidence 7 [CRCv1 869fe7d7]
    AccurateRip Verified Confidence 7 [CRCv2 ead2c562]
    AccurateRip Verified Confidence 7 [CRCv1 869fe7d7]

    Information ripping to FLAC, 'Track 14' to 'F:\Music\Joshua Rifkin\Scott Joplin; Digital Ragtime\14 Pleasant Moments (Waltz).flac'
    Track 14: Ripped LBA 255887 to 268302 (2:45) in 0:07. Filename: F:\Music\Joshua Rifkin\Scott Joplin; Digital Ragtime\14 Pleasant Moments (Waltz).flac
    AccurateRip: Accurate (confidence 6) [Pass 1]
    CRC32: 0E5996AC AccurateRip CRC: 3664EB09 (CRCv2) [DiscID: 015-0022cf1e-018c85e4-c70eb30f-14]
    AccurateRip Verified Confidence 6 [CRCv2 3664eb09]
    AccurateRip Verified Confidence 7 [CRCv1 2546b485]
    AccurateRip Verified Confidence 6 [CRCv2 3664eb09]
    AccurateRip Verified Confidence 7 [CRCv1 2546b485]

    Information ripping to FLAC, 'Track 15' to 'F:\Music\Joshua Rifkin\Scott Joplin; Digital Ragtime\15 Wall Street Rag.flac'
    Track 15: Ripped LBA 268302 to 282240 (3:05) in 0:08. Filename: F:\Music\Joshua Rifkin\Scott Joplin; Digital Ragtime\15 Wall Street Rag.flac
    AccurateRip: Accurate (confidence 7) [Pass 1]
    CRC32: 3E014AE7 AccurateRip CRC: A47A9B19 (CRCv2) [DiscID: 015-0022cf1e-018c85e4-c70eb30f-15]
    AccurateRip Verified Confidence 7 [CRCv2 a47a9b19]
    AccurateRip Verified Confidence 8 [CRCv1 57ddbe41]
    AccurateRip Verified Confidence 7 [CRCv2 a47a9b19]
    AccurateRip Verified Confidence 8 [CRCv1 57ddbe41]
    [/QUOhad


    Hi, did you cancel the rip after it had completed ripping the first track, and then start again?

  3. #3

    Join Date
    Jun 2015
    Posts
    18

    Re: What does a green colored CRC mean?

    As it happens, yes! I had done that!

    I deleted that one track file and changed the name, so it read into another folder though.

    Also, I re-tried ripping just that one track and got the same green color again.

    Does this mean something?

    Z

  4. #4
    dBpoweramp Guru
    Join Date
    Apr 2015
    Location
    England
    Posts
    695

    Re: What does a green colored CRC mean?

    AFAIK, it simply means that you have overwritten the original file, and achieved the same result - all is good!
    Last edited by Oggy; 05-08-2016 at 05:14 PM.

  5. #5

    Join Date
    Jun 2015
    Posts
    18

    Re: What does a green colored CRC mean?

    Thanks!

    Z

  6. #6
    dBpoweramp Guru
    Join Date
    Nov 2007
    Location
    Florida, USA
    Posts
    5,376

    Re: What does a green colored CRC mean?

    Quote Originally Posted by Oggy View Post
    AFAIK, it simply means that you have overwritten the original file, and achieved the same result - all is good!
    Yes, it means that the CRC from the current rip matches the CRC from the last rip. So as Oggy says, that's good!

  7. #7

    Join Date
    Jun 2015
    Posts
    18

    Re: What does a green colored CRC mean?

    Quote Originally Posted by garym View Post
    Yes, it means that the CRC from the current rip matches the CRC from the last rip. So as Oggy says, that's good!
    Great, thanks!! Whew.

    Z

Tags for this Thread

Posting Permissions

  • You may not post new threads
  • You may not post replies
  • You may not post attachments
  • You may not edit your posts
  •