title
Products            Buy            Support Forum            Professional            About            Codec Central
 
Results 1 to 10 of 10

Thread: How much it takes to upload CD info to accuraterip?

  1. #1

    Join Date
    Aug 2015
    Posts
    16

    How much it takes to upload CD info to accuraterip?

    Hello,
    How much it takes to upload CD info to accuraterip?

    I try to rip this in order to get a certified log but it's taking longer than expected. Others CD's ripped in the meanwhile are already on accuraterip
    Thanks
    Jose

    Exact Audio Copy V1.1 from 23. June 2015

    EAC extraction logfile from 22. July 2015, 15:08

    Various / Chocolate Mix 1

    Used drive : PIONEER BD-RW BDR-S08 Adapter: 1 ID: 0

    Read mode : Secure
    Utilize accurate stream : Yes
    Defeat audio cache : Yes
    Make use of C2 pointers : No

    Read offset correction : 667
    Overread into Lead-In and Lead-Out : Yes
    Fill up missing offset samples with silence : Yes
    Delete leading and trailing silent blocks : No
    Null samples used in CRC calculations : Yes
    Used interface : Native Win32 interface for Win NT & 2000
    Gap handling : Appended to previous track

    Used output format : Internal WAV Routines
    Sample format : 44.100 Hz; 16 Bit; Stereo


    TOC of the extracted CD

    Track | Start | Length | Start sector | End sector
    ---------------------------------------------------------
    1 | 0:00.33 | 8:51.62 | 33 | 39919
    2 | 8:52.20 | 4:53.50 | 39920 | 61944
    3 | 13:45.70 | 6:45.53 | 61945 | 92372
    4 | 20:31.48 | 5:20.35 | 92373 | 116407
    5 | 25:52.08 | 8:27.70 | 116408 | 154502
    6 | 34:20.03 | 3:58.30 | 154503 | 172382
    7 | 38:18.33 | 5:59.50 | 172383 | 199357
    8 | 44:18.08 | 7:13.12 | 199358 | 231844
    9 | 51:31.20 | 4:57.35 | 231845 | 254154
    10 | 56:28.55 | 4:36.60 | 254155 | 274914


    Track 1

    Filename D:\EAC rips\01. Various - Chocolate Mix 1 Megamix.wav

    Pre-gap length 0:00:02.33

    Peak level 97.7 %
    Extraction speed 5.0 X
    Track quality 99.9 %
    Test CRC 53C08EE3
    Copy CRC 53C08EE3
    Track not present in AccurateRip database
    Copy OK

    Track 2

    Filename D:\EAC rips\02. Zentral - Alarm (Original Version).wav

    Pre-gap length 0:00:02.00

    Peak level 97.7 %
    Extraction speed 5.7 X
    Track quality 100.0 %
    Test CRC 78F7F8B3
    Copy CRC 78F7F8B3
    Track not present in AccurateRip database
    Copy OK

    Track 3

    Filename D:\EAC rips\03. Sensity World - The World Won't Stop (Dance Version).wav

    Pre-gap length 0:00:02.00

    Peak level 99.4 %
    Extraction speed 6.0 X
    Track quality 99.9 %
    Test CRC F43C624F
    Copy CRC F43C624F
    Track not present in AccurateRip database
    Copy OK

    Track 4

    Filename D:\EAC rips\04. Kike Boy - Jumper.wav

    Pre-gap length 0:00:02.00

    Peak level 100.0 %
    Extraction speed 6.8 X
    Track quality 100.0 %
    Test CRC 519287D9
    Copy CRC 519287D9
    Track not present in AccurateRip database
    Copy OK

    Track 5

    Filename D:\EAC rips\05. Brainvibe - It's Hot (Wippenberg Mix).wav

    Pre-gap length 0:00:02.00

    Peak level 96.5 %
    Extraction speed 7.1 X
    Track quality 99.9 %
    Test CRC F7F3E0E5
    Copy CRC F7F3E0E5
    Track not present in AccurateRip database
    Copy OK

    Track 6

    Filename D:\EAC rips\06. Alberta - Be Crazy (Radio Edit).wav

    Pre-gap length 0:00:02.00

    Peak level 97.4 %
    Extraction speed 6.5 X
    Track quality 99.9 %
    Test CRC 6D6F9D8D
    Copy CRC 6D6F9D8D
    Track not present in AccurateRip database
    Copy OK

    Track 7

    Filename D:\EAC rips\07. Chaka Boom Bang - Tossin' And Turnin' (Ultimate Club Mix).wav

    Pre-gap length 0:00:02.00

    Peak level 94.3 %
    Extraction speed 7.9 X
    Track quality 100.0 %
    Test CRC 316244BD
    Copy CRC 316244BD
    Track not present in AccurateRip database
    Copy OK

    Track 8

    Filename D:\EAC rips\08. No Mercy feat. Tony D. - Missing (I Miss You Like The Deserts Miss The Rain) (Manumission Trance Mix).wav

    Pre-gap length 0:00:01.65

    Peak level 95.5 %
    Extraction speed 8.4 X
    Track quality 100.0 %
    Test CRC B4292015
    Copy CRC B4292015
    Track not present in AccurateRip database
    Copy OK

    Track 9

    Filename D:\EAC rips\09. Don Cu - The Guitar Sound (Remix).wav

    Pre-gap length 0:00:02.00

    Peak level 98.8 %
    Extraction speed 7.6 X
    Track quality 99.9 %
    Test CRC F138C751
    Copy CRC F138C751
    Track not present in AccurateRip database
    Copy OK

    Track 10

    Filename D:\EAC rips\10. B.P.M. System - C' Est Si Bon.wav

    Pre-gap length 0:00:01.47

    Peak level 98.3 %
    Extraction speed 9.2 X
    Track quality 100.0 %
    Test CRC 10BC639A
    Copy CRC 10BC639A
    Track not present in AccurateRip database
    Copy OK


    None of the tracks are present in the AccurateRip database

    No errors occurred

    End of status report

  2. #2
    dBpoweramp Guru
    Join Date
    Sep 2011
    Posts
    754

    Re: How much it takes to upload CD info to accuraterip?

    If you are asking how long it takes for new CD releases to appear in the AccurateRip databases, it varies a great deal. Popular albums usually show up very quickly, while obscure albums can seem to take forever. Most are something in between. Your post doesn't say what album you're talking about, but if you are getting a secure rip without errors, it doesn't really matter whether it's found in AccurateRip....you can be fairly assured that you have good copies. Your own rips will eventually be added to the databases.

    What do you mean when you say you're ripping "in order to get a certified log?" Accurate copies are typically the objective, and it sounds like you already have that.

  3. #3
    Administrator
    Join Date
    Apr 2002
    Posts
    39,273

    Re: How much it takes to upload CD info to accuraterip?

    It takes about 1 month, but if it is your submission that you later re-rip and certify against, then that is not as good as verifying against someone elses rip.

  4. #4

    Join Date
    Aug 2015
    Posts
    16

    Re: How much it takes to upload CD info to accuraterip?

    Quote Originally Posted by BrodyBoy View Post
    What do you mean when you say you're ripping "in order to get a certified log?"
    Accurately ripped (confidence X) [XXXXXXXX] (AR v2)
    All tracks accurately ripped... and those stuff

    First time I tried to rip this CD1 of 2CD set had a reading error due a scratch on track 01.
    Now I got a new copy but I found the last track ended with no silence, so I ripped it again with a drive that supports overreading in order to read it all.
    Since this, this CD entry seems to have been deleted from the Accuraterip database, while the CD2 remains on it.
    It's a valuable CD and it requires to be as trustfully as possible

  5. #5

    Join Date
    Aug 2015
    Posts
    16

    Re: How much it takes to upload CD info to accuraterip?

    Does it has the overreading option something to do with the required rips? My drive can overread and I use it because last track is not 100% silent at end

  6. #6
    Administrator
    Join Date
    Apr 2002
    Posts
    39,273

    Re: How much it takes to upload CD info to accuraterip?

    Overreading is not required.

  7. #7

    Join Date
    Aug 2015
    Posts
    16

    Re: How much it takes to upload CD info to accuraterip?

    It's enough trying to rip it again in a different computer? Or also I have to rip it in other place/IP?

  8. #8
    Administrator
    Join Date
    Apr 2002
    Posts
    39,273

    Re: How much it takes to upload CD info to accuraterip?

    A different CD drive helps, but you are comparing your own disc to your own disc, AccurateRip works so well because you compare your rip to someone elses disc.

  9. #9

    Join Date
    Aug 2015
    Posts
    16

    Re: How much it takes to upload CD info to accuraterip?

    I'm afraid that last track will always give a different CRC since it doesn't end in null samples, so depending the drive offset there will be more or less null samples at end.
    PIONEER BD-RW BDR-S08 is the only drive I have it can read the end properly without padding with zeroes.
    Will another PIONEER BD-RW BDR-S08 help? Same model but different serial?

    I also have a pair of +6 offset drives (each one from different vendor) and also another pair or +667 offset drives (also each one from different vendor)
    I can rip it in both +6 drives, but I wonder if this will prevent to get the "Accurately ripped (confidence X) [XXXXXXXX] (AR v2)" message in all tracks.
    It's so ugly to find some tracks verified and others don't.

  10. #10
    Administrator
    Join Date
    Apr 2002
    Posts
    39,273

    Re: How much it takes to upload CD info to accuraterip?

    Drive offsets do not affect AcurateRip and ripping the last track, it is designed to have a constant AccurateRip CRC.

Posting Permissions

  • You may not post new threads
  • You may not post replies
  • You may not post attachments
  • You may not edit your posts
  •