title
Products            Buy            Support Forum            Professional            About            Codec Central
 
Results 1 to 2 of 2

Thread: If CD is not in AccurateRip ... what happens?

  1. #1

    Join Date
    Jun 2015
    Posts
    18

    If CD is not in AccurateRip ... what happens?

    Hi, all.

    Continuing to use and like dbpoweramp! But, a few more questions with more ripping done.

    1. If an album is not in AccurateRip, does dbpoweramp go into a "read many times to confirm anything" mode? This took a while and is perhaps a fine thing to do, but unexpected (maybe not in hindsight) - see the ripping info below.

    2. Is there a reason that it did a "re-rip" of a number of frame in the first song? The disc appears to play fine ... was it simply trying to confirm everything?

    3. Am I right in being surprised that a very common (I would think) album, The Beatles "Rubber Soul", is not in AccurateRip? Has no one ever ripped this one and updated the data base?

    Z

    The rip info for this album:

    Information ripping to FLAC, 'Track 1' to 'F:\Music\The Beatles\Rubber Soul\01 Drive My Car.flac'
    Track 1: Ripped LBA 33 to 11303 (2:30) in 5:20. Filename: F:\Music\The Beatles\Rubber Soul\01 Drive My Car.flac
    Secure (Warning) [Pass 1 & 2, Ultra 1 to 3, Re-Rip 210 Frames]
    CRC32: C66FBDC9 AccurateRip CRC: D9D2445C (CRCv2) [DiscID: 014-0012ce1f-00c852ef-af08640e-1]

    Information ripping to FLAC, 'Track 2' to 'F:\Music\The Beatles\Rubber Soul\02 Norwegian Wood (This Bird Has Flown).flac'
    Track 2: Ripped LBA 11303 to 20710 (2:05) in 2:32. Filename: F:\Music\The Beatles\Rubber Soul\02 Norwegian Wood (This Bird Has Flown).flac
    Secure [Pass 1 & 2, Ultra 1 to 3]
    CRC32: 5D607082 AccurateRip CRC: EF8A7EBA (CRCv2) [DiscID: 014-0012ce1f-00c852ef-af08640e-2]

    Information ripping to FLAC, 'Track 3' to 'F:\Music\The Beatles\Rubber Soul\03 You Won't See Me.flac'
    Track 3: Ripped LBA 20710 to 35905 (3:22) in 2:59. Filename: F:\Music\The Beatles\Rubber Soul\03 You Won't See Me.flac
    Secure [Pass 1 & 2, Ultra 1 to 3]
    CRC32: 753495D2 AccurateRip CRC: 8AE997DA (CRCv2) [DiscID: 014-0012ce1f-00c852ef-af08640e-3]

    Information ripping to FLAC, 'Track 4' to 'F:\Music\The Beatles\Rubber Soul\04 Nowhere Man.flac'
    Track 4: Ripped LBA 35905 to 48228 (2:44) in 2:40. Filename: F:\Music\The Beatles\Rubber Soul\04 Nowhere Man.flac
    Secure [Pass 1 & 2, Ultra 1 to 3]
    CRC32: 11387EA8 AccurateRip CRC: 7EAD11E3 (CRCv2) [DiscID: 014-0012ce1f-00c852ef-af08640e-4]

    Information ripping to FLAC, 'Track 5' to 'F:\Music\The Beatles\Rubber Soul\05 Think For Yourself.flac'
    Track 5: Ripped LBA 48228 to 58678 (2:19) in 2:28. Filename: F:\Music\The Beatles\Rubber Soul\05 Think For Yourself.flac
    Secure [Pass 1 & 2, Ultra 1 to 3]
    CRC32: 098FFAD7 AccurateRip CRC: 6B9B133C (CRCv2) [DiscID: 014-0012ce1f-00c852ef-af08640e-5]

    Information ripping to FLAC, 'Track 6' to 'F:\Music\The Beatles\Rubber Soul\06 The Word.flac'
    Track 6: Ripped LBA 58678 to 70955 (2:43) in 2:32. Filename: F:\Music\The Beatles\Rubber Soul\06 The Word.flac
    Secure [Pass 1 & 2, Ultra 1 to 3]
    CRC32: F79BBD31 AccurateRip CRC: 231EA932 (CRCv2) [DiscID: 014-0012ce1f-00c852ef-af08640e-6]

    Information ripping to FLAC, 'Track 7' to 'F:\Music\The Beatles\Rubber Soul\07 Michelle.flac'
    Track 7: Ripped LBA 70955 to 83133 (2:42) in 2:30. Filename: F:\Music\The Beatles\Rubber Soul\07 Michelle.flac
    Secure [Pass 1 & 2, Ultra 1 to 3]
    CRC32: 441BC225 AccurateRip CRC: 79ADAE1C (CRCv2) [DiscID: 014-0012ce1f-00c852ef-af08640e-7]

    Information ripping to FLAC, 'Track 8' to 'F:\Music\The Beatles\Rubber Soul\08 What Goes On.flac'
    Track 8: Ripped LBA 83133 to 95943 (2:50) in 2:30. Filename: F:\Music\The Beatles\Rubber Soul\08 What Goes On.flac
    Secure [Pass 1 & 2, Ultra 1 to 3]
    CRC32: 24ACE8F2 AccurateRip CRC: 8DECC353 (CRCv2) [DiscID: 014-0012ce1f-00c852ef-af08640e-8]

    Information ripping to FLAC, 'Track 9' to 'F:\Music\The Beatles\Rubber Soul\09 Girl.flac'
    Track 9: Ripped LBA 95943 to 107483 (2:33) in 2:23. Filename: F:\Music\The Beatles\Rubber Soul\09 Girl.flac
    Secure [Pass 1 & 2, Ultra 1 to 3]
    CRC32: 1C47FFED AccurateRip CRC: 7058033A (CRCv2) [DiscID: 014-0012ce1f-00c852ef-af08640e-9]

    Information ripping to FLAC, 'Track 10' to 'F:\Music\The Beatles\Rubber Soul\10 I'm Looking Through You.flac'
    Track 10: Ripped LBA 107483 to 118570 (2:27) in 2:20. Filename: F:\Music\The Beatles\Rubber Soul\10 I'm Looking Through You.flac
    Secure [Pass 1 & 2, Ultra 1 to 3]
    CRC32: 7667506B AccurateRip CRC: 658FE19A (CRCv2) [DiscID: 014-0012ce1f-00c852ef-af08640e-10]

    Information ripping to FLAC, 'Track 11' to 'F:\Music\The Beatles\Rubber Soul\11 In My Life.flac'
    Track 11: Ripped LBA 118570 to 129668 (2:27) in 2:19. Filename: F:\Music\The Beatles\Rubber Soul\11 In My Life.flac
    Secure [Pass 1 & 2, Ultra 1 to 3]
    CRC32: BF8DE3C0 AccurateRip CRC: CE74B1BC (CRCv2) [DiscID: 014-0012ce1f-00c852ef-af08640e-11]

    Information ripping to FLAC, 'Track 12' to 'F:\Music\The Beatles\Rubber Soul\12 Wait.flac'
    Track 12: Ripped LBA 129668 to 139940 (2:16) in 2:19. Filename: F:\Music\The Beatles\Rubber Soul\12 Wait.flac
    Secure [Pass 1 & 2, Ultra 1 to 3]
    CRC32: 05DAC10E AccurateRip CRC: F6ABD292 (CRCv2) [DiscID: 014-0012ce1f-00c852ef-af08640e-12]

    Information ripping to FLAC, 'Track 13' to 'F:\Music\The Beatles\Rubber Soul\13 If I Needed Someone.flac'
    Track 13: Ripped LBA 139940 to 150728 (2:23) in 2:15. Filename: F:\Music\The Beatles\Rubber Soul\13 If I Needed Someone.flac
    Secure [Pass 1 & 2, Ultra 1 to 3]
    CRC32: AE9B420B AccurateRip CRC: F3057E6C (CRCv2) [DiscID: 014-0012ce1f-00c852ef-af08640e-13]

    Information ripping to FLAC, 'Track 14' to 'F:\Music\The Beatles\Rubber Soul\14 Run For Your Life.flac'
    Track 14: Ripped LBA 150728 to 161138 (2:18) in 2:15. Filename: F:\Music\The Beatles\Rubber Soul\14 Run For Your Life.flac
    Secure [Pass 1 & 2, Ultra 1 to 3]
    CRC32: 41D3D628 AccurateRip CRC: EC8BEDC9 (CRCv2) [DiscID: 014-0012ce1f-00c852ef-af08640e-14]

  2. #2
    Administrator
    Join Date
    Apr 2002
    Posts
    38,660

    Re: If CD is not in AccurateRip ... what happens?

    >does dbpoweramp go into a "read many times to confirm anything" mode?

    Yes

    2. Could be a manufacturing defect

    3. Could be a new pressing of the disc.

Tags for this Thread

Posting Permissions

  • You may not post new threads
  • You may not post replies
  • You may not post attachments
  • You may not edit your posts
  •