title
Products            Buy            Support Forum            Professional            About            Codec Central
 
Results 1 to 12 of 12

Thread: Small Unplayable File Size using Nimbie NB11

  1. #1

    Join Date
    Jun 2015
    Posts
    6

    Small Unplayable File Size using Nimbie NB11

    I'm a new user. I just bought DBPA and a Nimbie NB11. I rip fine with DBPA choosing either my internal DVD player or the Nimbie Opticarc. However, when I use Batch Ripper with the same setting, it seems to rip as it should (as I watched it through DBPA) but the output is only 15kb files. Nimbie cycles through the discs, ejected in front for perfect rips and dropping them underneath for rips with errors.
    I saw in another post to disable antivirus, but that has not helped.
    Here is a copy of a rip:

    snip.jpg

  2. #2
    Administrator
    Join Date
    Apr 2002
    Posts
    38,919

    Re: Small Unplayable File Size using Nimbie NB11

    As a test, remove the multi-encoder, then rip to just wave, whilst ripping in batch ripper you can right click on the drive line and view CD Ripper (which is hidden).

  3. #3

    Join Date
    Jun 2015
    Posts
    6

    Re: Small Unplayable File Size using Nimbie NB11

    That did not work. It gave a .wav file size of 42kb. Here is the report:


    dBpoweramp Release 14.4 Digital Audio Extraction Log from Thursday, June 18, 2015 19:00

    Drive & Settings
    ----------------

    Ripping with drive 'J: [Optiarc - DVD RW AD-7261S ]', Drive offset: 48, Overread Lead-in/out: No
    AccurateRip: Active, Using C2: No, Cache: 1024 KB, FUA Cache Invalidate: No
    Pass 1 Drive Speed: Max, Pass 2 Drive Speed: Max
    Ultra:: Vary Drive Speed: No, Min Passes: 2, Max Passes: 4, Finish After Clean Passes: 2
    Bad Sector Re-rip:: Drive Speed: Max, Maximum Re-reads: 34

    Encoder: Wave -compression="PCM"
    DSP Effects / Actions: -dspeffect1="ReplayGain= -albummode={qt}0{qt} -itunnorm={qt}1{qt} -r128lufs={qt}-18{qt}" -dspeffect2="HDCD="

    Extraction Log
    --------------

    Track 1: Ripped LBA 32 to 13885 (3:04) in 0:15. Filename: F:\Linkin Park\2000 10 24-Hybrid Theory\01-Papercut.wav
    AccurateRip: Accurate (confidence 200) [Pass 1]
    CRC32: EDD42FEA AccurateRip CRC: 1858D89F (CRCv2) [DiscID: 012-0010e944-009e5fa9-a808df0c-1]
    AccurateRip Verified Confidence 200 [CRCv2 1858d89f]
    AccurateRip Verified Confidence 200 [CRCv1 243ac6b4]
    AccurateRip Verified Confidence 13 [CRCv2 b506e9c], Using Pressing Offset -664
    AccurateRip Verified Confidence 42 [CRCv1 15381b84], Using Pressing Offset -664

    Track 2: Ripped LBA 13885 to 25560 (2:35) in 0:08. Filename: F:\Linkin Park\2000 10 24-Hybrid Theory\02-One Step Closer.wav
    AccurateRip: Accurate (confidence 200) [Pass 1]
    CRC32: 82E570B8 AccurateRip CRC: DBED9926 (CRCv2) [DiscID: 012-0010e944-009e5fa9-a808df0c-2]
    AccurateRip Verified Confidence 200 [CRCv2 dbed9926]
    AccurateRip Verified Confidence 200 [CRCv1 639d09f8]
    AccurateRip Verified Confidence 13 [CRCv2 4440bece], Using Pressing Offset -664
    AccurateRip Verified Confidence 42 [CRCv1 d0cc8f5a], Using Pressing Offset -664

    Track 3: Ripped LBA 25560 to 40805 (3:23) in 0:10. Filename: F:\Linkin Park\2000 10 24-Hybrid Theory\03-With You.wav
    AccurateRip: Accurate (confidence 200) [Pass 1]
    CRC32: 2E2361E5 AccurateRip CRC: 66800618 (CRCv2) [DiscID: 012-0010e944-009e5fa9-a808df0c-3]
    AccurateRip Verified Confidence 200 [CRCv2 66800618]
    AccurateRip Verified Confidence 200 [CRCv1 d95e7ba6]
    AccurateRip Verified Confidence 13 [CRCv2 40d9989d], Using Pressing Offset -664
    AccurateRip Verified Confidence 42 [CRCv1 a9a48ea2], Using Pressing Offset -664

    Track 4: Ripped LBA 40805 to 55825 (3:20) in 0:09. Filename: F:\Linkin Park\2000 10 24-Hybrid Theory\04-Points of Authority.wav
    AccurateRip: Accurate (confidence 200) [Pass 1]
    CRC32: EB72AA1B AccurateRip CRC: 28587271 (CRCv2) [DiscID: 012-0010e944-009e5fa9-a808df0c-4]
    AccurateRip Verified Confidence 200 [CRCv2 28587271]
    AccurateRip Verified Confidence 200 [CRCv1 d2a75db]
    AccurateRip Verified Confidence 13 [CRCv2 cc6c5258], Using Pressing Offset -664
    AccurateRip Verified Confidence 42 [CRCv1 cd0a5c7b], Using Pressing Offset -664

    Track 5: Ripped LBA 55825 to 71500 (3:29) in 0:09. Filename: F:\Linkin Park\2000 10 24-Hybrid Theory\05-Crawling.wav
    AccurateRip: Accurate (confidence 200) [Pass 1]
    CRC32: 880C5533 AccurateRip CRC: DD0EAF7D (CRCv2) [DiscID: 012-0010e944-009e5fa9-a808df0c-5]
    AccurateRip Verified Confidence 200 [CRCv2 dd0eaf7d]
    AccurateRip Verified Confidence 200 [CRCv1 d9c18e34]
    AccurateRip Verified Confidence 13 [CRCv2 7b9cc273], Using Pressing Offset -664
    AccurateRip Verified Confidence 42 [CRCv1 5338eb01], Using Pressing Offset -664

    Track 6: Ripped LBA 71500 to 85295 (3:03) in 0:07. Filename: F:\Linkin Park\2000 10 24-Hybrid Theory\06-Runaway.wav
    AccurateRip: Accurate (confidence 200) [Pass 1]
    CRC32: 90BD5345 AccurateRip CRC: 2B33C918 (CRCv2) [DiscID: 012-0010e944-009e5fa9-a808df0c-6]
    AccurateRip Verified Confidence 200 [CRCv2 2b33c918]
    AccurateRip Verified Confidence 200 [CRCv1 6abc2f07]
    AccurateRip Verified Confidence 13 [CRCv2 9dbf6827], Using Pressing Offset -664
    AccurateRip Verified Confidence 42 [CRCv1 c68eed6], Using Pressing Offset -664

    Track 7: Ripped LBA 85295 to 99530 (3:09) in 0:07. Filename: F:\Linkin Park\2000 10 24-Hybrid Theory\07-By Myself.wav
    AccurateRip: Accurate (confidence 200) [Pass 1]
    CRC32: 48C4DB01 AccurateRip CRC: 5D3B14D0 (CRCv2) [DiscID: 012-0010e944-009e5fa9-a808df0c-7]
    AccurateRip Verified Confidence 200 [CRCv2 5d3b14d0]
    AccurateRip Verified Confidence 200 [CRCv1 d699ac11]
    AccurateRip Verified Confidence 13 [CRCv2 4b3ee11f], Using Pressing Offset -664
    AccurateRip Verified Confidence 44 [CRCv1 dfe0318d], Using Pressing Offset -664

    Track 8: Ripped LBA 99530 to 115752 (3:36) in 0:08. Filename: F:\Linkin Park\2000 10 24-Hybrid Theory\08-In the End.wav
    AccurateRip: Accurate (confidence 200) [Pass 1]
    CRC32: 34C6B9F9 AccurateRip CRC: CB5CB989 (CRCv2) [DiscID: 012-0010e944-009e5fa9-a808df0c-8]
    AccurateRip Verified Confidence 200 [CRCv2 cb5cb989]
    AccurateRip Verified Confidence 200 [CRCv1 e9454db6]
    AccurateRip Verified Confidence 11 [CRCv2 fb35b70e], Using Pressing Offset -664
    AccurateRip Verified Confidence 41 [CRCv1 5a12f983], Using Pressing Offset -664

    Track 9: Ripped LBA 115752 to 129597 (3:04) in 0:06. Filename: F:\Linkin Park\2000 10 24-Hybrid Theory\09-A Place for My Head.wav
    AccurateRip: Accurate (confidence 200) [Pass 1]
    CRC32: 2E7C303F AccurateRip CRC: 3FCB659F (CRCv2) [DiscID: 012-0010e944-009e5fa9-a808df0c-9]
    AccurateRip Verified Confidence 200 [CRCv2 3fcb659f]
    AccurateRip Verified Confidence 200 [CRCv1 70499284]
    AccurateRip Verified Confidence 12 [CRCv2 ee1d21cc], Using Pressing Offset -664
    AccurateRip Verified Confidence 42 [CRCv1 25077840], Using Pressing Offset -664

    Track 10: Ripped LBA 129597 to 144182 (3:14) in 0:07. Filename: F:\Linkin Park\2000 10 24-Hybrid Theory\10-Forgotten.wav
    AccurateRip: Accurate (confidence 200) [Pass 1]
    CRC32: 74F096C1 AccurateRip CRC: 733E3FA7 (CRCv2) [DiscID: 012-0010e944-009e5fa9-a808df0c-10]
    AccurateRip Verified Confidence 200 [CRCv2 733e3fa7]
    AccurateRip Verified Confidence 200 [CRCv1 104d252a]
    AccurateRip Verified Confidence 12 [CRCv2 81c69c3b], Using Pressing Offset -664
    AccurateRip Verified Confidence 42 [CRCv1 37435319], Using Pressing Offset -664

    Track 11: Ripped LBA 144182 to 155972 (2:37) in 0:05. Filename: F:\Linkin Park\2000 10 24-Hybrid Theory\11-Cure for the Itch.wav
    AccurateRip: Accurate (confidence 200) [Pass 1]
    CRC32: 1DD96DF2 AccurateRip CRC: 54FE05F1 (CRCv2) [DiscID: 012-0010e944-009e5fa9-a808df0c-11]
    AccurateRip Verified Confidence 200 [CRCv2 54fe05f1]
    AccurateRip Verified Confidence 200 [CRCv1 eaf5c1e7]
    AccurateRip Verified Confidence 12 [CRCv2 b8c86df6], Using Pressing Offset -664
    AccurateRip Verified Confidence 42 [CRCv1 c59d9bc8], Using Pressing Offset -664

    Track 12: Ripped LBA 155972 to 170357 (3:11) in 0:06. Filename: F:\Linkin Park\2000 10 24-Hybrid Theory\12-Pushing Me Away.wav
    AccurateRip: Accurate (confidence 200) [Pass 1]
    CRC32: 0384076D AccurateRip CRC: 424F8E8D (CRCv2) [DiscID: 012-0010e944-009e5fa9-a808df0c-12]
    AccurateRip Verified Confidence 200 [CRCv2 424f8e8d]
    AccurateRip Verified Confidence 200 [CRCv1 cd3d2755]
    AccurateRip Verified Confidence 12 [CRCv2 fc01b377], Using Pressing Offset -664
    AccurateRip Verified Confidence 40 [CRCv1 e0643b23], Using Pressing Offset -664

    --------------

    12 Tracks Ripped Accurately

  4. #4
    Administrator
    Join Date
    Apr 2002
    Posts
    38,919

    Re: Small Unplayable File Size using Nimbie NB11

    What security software do you have?

    It looks like CD Ripper.exe is able to write to the audio files, but CoreConverter.exe is not allowed.

  5. #5

    Join Date
    Jun 2015
    Posts
    6

    Re: Small Unplayable File Size using Nimbie NB11

    Webroot.
    But again, CD Ripper works fine, just not Batch Ripper.

  6. #6
    Administrator
    Join Date
    Apr 2002
    Posts
    38,919

    Re: Small Unplayable File Size using Nimbie NB11

    Enable debug logging (in dBpoweramp Configuration) and rip the same CD with CD Ripper then Batch Ripper.

  7. #7

    Join Date
    Jun 2015
    Posts
    6

    Re: Small Unplayable File Size using Nimbie NB11

    I cannot upload the large debug file sizes. Looks like I am limited by the number of characters.

    Do you have an email I can use?

  8. #8
    Administrator
    Join Date
    Apr 2002
    Posts
    38,919

    Re: Small Unplayable File Size using Nimbie NB11


  9. #9

    Join Date
    Jun 2015
    Posts
    6

    Re: Small Unplayable File Size using Nimbie NB11

    sent

  10. #10
    Administrator
    Join Date
    Apr 2002
    Posts
    38,919

    Re: Small Unplayable File Size using Nimbie NB11

    Taking just the file Debug Batch Ripper.txt as that writes to just wave which shows:

    Opening file 'F:\Good Charlotte\2002 09-The Young and the Hopeless\01-A New Beginning.wav' for write access: Opened

    RIFF Header 'RIFF' Length: 19518136 FormType 'WAVE'
    Got Chunk 'fmt ' Length: 16 RiffSizeLeft: 19518124 ChunkPosition: 12
    Got Chunk 'data' Length: 19394592 RiffSizeLeft: 19518100 ChunkPosition: 36
    Got Chunk 'LIST' Length: 220 RiffSizeLeft: 123500 ChunkPosition: 19394636
    Got Chunk 'id3 ' Length: 123272 RiffSizeLeft: 123272 ChunkPosition: 19394864

    This shows that in the above file there is a 19MB of data. If the wave file does not exist, then it is something outside of dBpoweramp which is deleting.

  11. #11

    Join Date
    Jun 2015
    Posts
    6

    Re: Small Unplayable File Size using Nimbie NB11

    What programs can be doing this?

  12. #12
    Administrator
    Join Date
    Apr 2002
    Posts
    38,919

    Re: Small Unplayable File Size using Nimbie NB11

    I would not know what you have installed on the computer.

Tags for this Thread

Posting Permissions

  • You may not post new threads
  • You may not post replies
  • You may not post attachments
  • You may not edit your posts
  •