title
Products            Buy            Support Forum            Professional            About            Codec Central
 
Results 1 to 6 of 6

Thread: AccurateRip Track Icon Disappears

  1. #1

    Join Date
    Jul 2014
    Posts
    3

    AccurateRip Track Icon Disappears

    Hello,

    I just started using the dBpoweramp CD Ripper to create FLACs. Works great, I have had a couple of CDs with bad spots and the Secure Ripping has pulled through.

    One issue that I have seen is with AccurateRip. The system starts ripping tracks, each in one pass. The tracks are encoded and the AccurateRip icon displays (with good numbers) for each track. But once the rip is complete the icon is replaced with a Check icon on a few tracks. I believe the AccurateRip icon is displayed for the total ripped tracks at the end even with some of the tracks not displaying the icon. Also the meta data shows the proper AccurateRip status, i.e. "AccurateRip: Accurate (confidence 44) [28EB03FC]".

    I poked around on the forum, but don't see any other reports of this happening. I suspect that everything is fine, just some random bug, but I just wanted to report it.

    Thanks.

  2. #2
    Administrator
    Join Date
    Apr 2002
    Posts
    39,011

    Re: AccurateRip Track Icon Disappears

    Can you post a few screenshots to show this better?

  3. #3

    Join Date
    Jul 2014
    Posts
    3

    Re: AccurateRip Track Icon Disappears

    Of course I couldn't get it to happen for a while, but I finally got screenshots. The first is of the rip at the last track showing all the AccurateRip icons for each track. The second is the screen after the rip is complete showing tracks 9 & 10 with checkmarks. The last shot is of track 9's properties in Windows showing the AccurateRip tag.

    Thanks for looking into this.

    01_RippingLastTrack.jpg

    02_FinalRipListing.jpg

    03_TrackNineProperties.jpg

  4. #4
    Administrator
    Join Date
    Apr 2002
    Posts
    39,011

    Re: AccurateRip Track Icon Disappears

    It suggests a memory corruption, very strange.

    Try ripping to 'Test Conversion' as the encoder.

    Also show the info log at the end, to display the secure status.

  5. #5

    Join Date
    Jul 2014
    Posts
    3

    Re: AccurateRip Track Icon Disappears

    Here is a test conversion. I ran it a few times before I got the icon to swap. I have new information too. I'm pretty sure it happens when I mess with meta data during the rip. Anyway tracks 1-7 swapped from AccurateRip to Complete.


    Information ripping to Test Conversion, 'Track 1' to 'F:\HomeTwo Music\Crosby, Stills, Nash & Young\Déjà Vu\01 Crosby, Stills, Nash & Young - Carry On.IGNORE'
    Track 1: Ripped LBA 32 to 20092 (4:27) in 0:16. Filename: F:\HomeTwo Music\Crosby, Stills, Nash & Young\Déjà Vu\01 Crosby, Stills, Nash & Young - Carry On.IGNORE
    AccurateRip: Accurate (confidence 56) [Pass 1]
    CRC32: 6F831ED8 AccurateRip CRC: C2CE7A32 (CRCv2) [DiscID: 010-000e5aa1-0071de3a-8608900a-1]
    AccurateRip Verified Confidence 56 [CRCv2 c2ce7a32]
    AccurateRip Verified Confidence 75 [CRCv1 6b999310]
    AccurateRip Verified Confidence 76 [CRCv2 13669eaa], Using Pressing Offset +661
    AccurateRip Verified Confidence 72 [CRCv1 a2bc0037], Using Pressing Offset +661

    Information ripping to Test Conversion, 'Track 2' to 'F:\HomeTwo Music\Crosby, Stills, Nash & Young\Déjà Vu\02 Crosby, Stills, Nash & Young - Teach Your Children.IGNORE'
    Track 2: Ripped LBA 20092 to 33227 (2:55) in 0:07. Filename: F:\HomeTwo Music\Crosby, Stills, Nash & Young\Déjà Vu\02 Crosby, Stills, Nash & Young - Teach Your Children.IGNORE
    AccurateRip: Accurate (confidence 57) [Pass 1]
    CRC32: 29AB672B AccurateRip CRC: 0D60DA51 (CRCv2) [DiscID: 010-000e5aa1-0071de3a-8608900a-2]
    AccurateRip Verified Confidence 57 [CRCv2 d60da51]
    AccurateRip Verified Confidence 74 [CRCv1 37ee10f4]
    AccurateRip Verified Confidence 77 [CRCv2 c2f7fd64], Using Pressing Offset +661
    AccurateRip Verified Confidence 73 [CRCv1 de95edc], Using Pressing Offset +661

    Information ripping to Test Conversion, 'Track 3' to 'F:\HomeTwo Music\Crosby, Stills, Nash & Young\Déjà Vu\03 Crosby, Stills, Nash & Young - Almost Cut My Hair.IGNORE'
    Track 3: Ripped LBA 33227 to 53562 (4:31) in 0:10. Filename: F:\HomeTwo Music\Crosby, Stills, Nash & Young\Déjà Vu\03 Crosby, Stills, Nash & Young - Almost Cut My Hair.IGNORE
    AccurateRip: Accurate (confidence 58) [Pass 1]
    CRC32: 5F587150 AccurateRip CRC: AD0923D6 (CRCv2) [DiscID: 010-000e5aa1-0071de3a-8608900a-3]
    AccurateRip Verified Confidence 58 [CRCv2 ad0923d6]
    AccurateRip Verified Confidence 75 [CRCv1 e98ff236]
    AccurateRip Verified Confidence 75 [CRCv2 6197ba00], Using Pressing Offset +661
    AccurateRip Verified Confidence 72 [CRCv1 e1dfc81b], Using Pressing Offset +661

    Information ripping to Test Conversion, 'Track 4' to 'F:\HomeTwo Music\Crosby, Stills, Nash & Young\Déjà Vu\04 Crosby, Stills, Nash & Young - Helpless.IGNORE'
    Track 4: Ripped LBA 53562 to 70102 (3:40) in 0:07. Filename: F:\HomeTwo Music\Crosby, Stills, Nash & Young\Déjà Vu\04 Crosby, Stills, Nash & Young - Helpless.IGNORE
    AccurateRip: Accurate (confidence 57) [Pass 1]
    CRC32: D98CE328 AccurateRip CRC: 58DA29AB (CRCv2) [DiscID: 010-000e5aa1-0071de3a-8608900a-4]
    AccurateRip Verified Confidence 57 [CRCv2 58da29ab]
    AccurateRip Verified Confidence 73 [CRCv1 33641da2]
    AccurateRip Verified Confidence 77 [CRCv2 fcd4de79], Using Pressing Offset +661
    AccurateRip Verified Confidence 72 [CRCv1 4a7d627], Using Pressing Offset +661

    Information ripping to Test Conversion, 'Track 5' to 'F:\HomeTwo Music\Crosby, Stills, Nash & Young\Déjà Vu\05 Crosby, Stills, Nash & Young - Woodstock.IGNORE'
    Track 5: Ripped LBA 70102 to 87847 (3:56) in 0:07. Filename: F:\HomeTwo Music\Crosby, Stills, Nash & Young\Déjà Vu\05 Crosby, Stills, Nash & Young - Woodstock.IGNORE
    AccurateRip: Accurate (confidence 57) [Pass 1]
    CRC32: 4E5EE71D AccurateRip CRC: A43D74E8 (CRCv2) [DiscID: 010-000e5aa1-0071de3a-8608900a-5]
    AccurateRip Verified Confidence 57 [CRCv2 a43d74e8]
    AccurateRip Verified Confidence 75 [CRCv1 6a1be0c3]
    AccurateRip Verified Confidence 77 [CRCv2 faa30ebc], Using Pressing Offset +661
    AccurateRip Verified Confidence 71 [CRCv1 f0e49f3a], Using Pressing Offset +661

    Information ripping to Test Conversion, 'Track 6' to 'F:\HomeTwo Music\Crosby, Stills, Nash & Young\Déjà Vu\06 Crosby, Stills, Nash & Young - Déjà Vu.IGNORE'
    Track 6: Ripped LBA 87847 to 106950 (4:14) in 0:08. Filename: F:\HomeTwo Music\Crosby, Stills, Nash & Young\Déjà Vu\06 Crosby, Stills, Nash & Young - Déjà Vu.IGNORE
    AccurateRip: Accurate (confidence 56) [Pass 1]
    CRC32: 450F6E57 AccurateRip CRC: 5778053C (CRCv2) [DiscID: 010-000e5aa1-0071de3a-8608900a-6]
    AccurateRip Verified Confidence 56 [CRCv2 5778053c]
    AccurateRip Verified Confidence 73 [CRCv1 8739f3db]
    AccurateRip Verified Confidence 75 [CRCv2 1d5afe43], Using Pressing Offset +661
    AccurateRip Verified Confidence 73 [CRCv1 808f06c6], Using Pressing Offset +661

    Information ripping to Test Conversion, 'Track 7' to 'F:\HomeTwo Music\Crosby, Stills, Nash & Young\Déjà Vu\07 Crosby, Stills, Nash & Young - Our House.IGNORE'
    Track 7: Ripped LBA 106950 to 120537 (3:01) in 0:05. Filename: F:\HomeTwo Music\Crosby, Stills, Nash & Young\Déjà Vu\07 Crosby, Stills, Nash & Young - Our House.IGNORE
    AccurateRip: Accurate (confidence 57) [Pass 1]
    CRC32: 6598A0BD AccurateRip CRC: CAC7949C (CRCv2) [DiscID: 010-000e5aa1-0071de3a-8608900a-7]
    AccurateRip Verified Confidence 57 [CRCv2 cac7949c]
    AccurateRip Verified Confidence 74 [CRCv1 8ce456ad]
    AccurateRip Verified Confidence 77 [CRCv2 65c0b8c1], Using Pressing Offset +661
    AccurateRip Verified Confidence 73 [CRCv1 472eef5d], Using Pressing Offset +661

    Information ripping to Test Conversion, 'Track 8' to 'F:\HomeTwo Music\Crosby, Stills, Nash & Young\Déjà Vu\08 Crosby, Stills, Nash & Young - 4 + 20.IGNORE'
    Track 8: Ripped LBA 120537 to 130192 (2:08) in 0:03. Filename: F:\HomeTwo Music\Crosby, Stills, Nash & Young\Déjà Vu\08 Crosby, Stills, Nash & Young - 4 + 20.IGNORE
    AccurateRip: Accurate (confidence 58) [Pass 1]
    CRC32: 0A3137D8 AccurateRip CRC: 5C70E0A9 (CRCv2) [DiscID: 010-000e5aa1-0071de3a-8608900a-8]
    AccurateRip Verified Confidence 58 [CRCv2 5c70e0a9]
    AccurateRip Verified Confidence 75 [CRCv1 1861813c]
    AccurateRip Verified Confidence 75 [CRCv2 4db6e3d8], Using Pressing Offset +661
    AccurateRip Verified Confidence 70 [CRCv1 21560ad4], Using Pressing Offset +661

    Information ripping to Test Conversion, 'Track 9' to 'F:\HomeTwo Music\Crosby, Stills, Nash & Young\Déjà Vu\09 Crosby, Stills, Nash & Young - Country Girl; Whiskey Boot Hill-Down, Down, Down-'Country Girl' (I ...).IGNORE'
    Track 9: Ripped LBA 130192 to 153757 (5:14) in 0:08. Filename: F:\HomeTwo Music\Crosby, Stills, Nash & Young\Déjà Vu\09 Crosby, Stills, Nash & Young - Country Girl; Whiskey Boot Hill-Down, Down, Down-'Country Girl' (I ...).IGNORE
    AccurateRip: Accurate (confidence 58) [Pass 1]
    CRC32: 265A87DE AccurateRip CRC: 0F7B4969 (CRCv2) [DiscID: 010-000e5aa1-0071de3a-8608900a-9]
    AccurateRip Verified Confidence 58 [CRCv2 f7b4969]
    AccurateRip Verified Confidence 72 [CRCv1 e9463a1b]
    AccurateRip Verified Confidence 74 [CRCv2 67a28775], Using Pressing Offset +661
    AccurateRip Verified Confidence 70 [CRCv1 83f0e895], Using Pressing Offset +661

    Information ripping to Test Conversion, 'Track 10' to 'F:\HomeTwo Music\Crosby, Stills, Nash & Young\Déjà Vu\10 Crosby, Stills, Nash & Young - Everybody I Love You.IGNORE'
    Track 10: Ripped LBA 153757 to 164407 (2:22) in 0:03. Filename: F:\HomeTwo Music\Crosby, Stills, Nash & Young\Déjà Vu\10 Crosby, Stills, Nash & Young - Everybody I Love You.IGNORE
    AccurateRip: Accurate (confidence 57) [Pass 1]
    CRC32: 45EBEFA2 AccurateRip CRC: D6C27708 (CRCv2) [DiscID: 010-000e5aa1-0071de3a-8608900a-10]
    AccurateRip Verified Confidence 57 [CRCv2 d6c27708]
    AccurateRip Verified Confidence 70 [CRCv1 27a26395]
    AccurateRip Verified Confidence 75 [CRCv2 d8202bd3], Using Pressing Offset +661
    AccurateRip Verified Confidence 71 [CRCv1 a2fd80bb], Using Pressing Offset +661

  6. #6
    Administrator
    Join Date
    Apr 2002
    Posts
    39,011

    Re: AccurateRip Track Icon Disappears

    Editing the metadata whilst ripping potentially would change the accuraterip values, it is not recommended to do this.

Tags for this Thread

Posting Permissions

  • You may not post new threads
  • You may not post replies
  • You may not post attachments
  • You may not edit your posts
  •