title
Products            Buy            Support Forum            Professional            About            Codec Central
 
Results 1 to 6 of 6

Thread: New user: Error on every track

  1. #1

    Join Date
    May 2014
    Posts
    3

    New user: Error on every track

    I am new to using DBpoweramp and secure ripping in general. my first CD ripped failed with the following error: is my CD just bad or have I done something incorrectly? I followed the secure ripping setup guide. Any help would be appreciated.

    dBpoweramp Release 15 Digital Audio Extraction Log from Monday, May 05, 2014 02:15

    Drive & Settings
    ----------------

    Ripping with drive 'D: [HL-DT-ST - BD-RE WH10LS30 ]', Drive offset: 667, Overread Lead-in/out: No
    AccurateRip: Active, Using C2: Yes, Cache: 1024 KB, FUA Cache Invalidate: No
    Pass 1 Drive Speed: Max, Pass 2 Drive Speed: Max
    Ultra:: Vary Drive Speed: No, Min Passes: 1, Max Passes: 2, Finish After Clean Passes: 1
    Bad Sector Re-rip:: Drive Speed: Max, Maximum Re-reads: 60

    Encoder: FLAC -compression-level-5
    DSP Effects / Actions: -dspeffect1="ReplayGain=-albummode={qt}0{qt} -r128 -r128lufs={qt}-23{qt}" -dspeffect2="HDCD="

    Extraction Log
    --------------

    Track 1: Ripped LBA 0 to 16799 (3:43) in 1:35. Filename: E:\Music\Eli Young Band\Level\01 Small Town Kid - Eli Young Band.flac
    Insecure [Pass 1, Ultra 1 to 1, Re-Rip 5776 Frames]
    Insecure [Pass 1, Ultra 1 to 1, Re-Rip 5776 Frames]
    ** Aborted: Have to ReRip 5776 Frames, Re-Rip Limit Set to 100 Frames

    Track 2: Ripped LBA 16799 to 36023 (4:16) in 1:37. Filename: E:\Music\Eli Young Band\Level\02 When It Rains - Eli Young Band.flac
    Insecure [Pass 1, Ultra 1 to 1, Re-Rip 6677 Frames]
    Insecure [Pass 1, Ultra 1 to 1, Re-Rip 6677 Frames]
    ** Aborted: Have to ReRip 6677 Frames, Re-Rip Limit Set to 100 Frames

    Track 3: Ripped LBA 36023 to 52305 (3:37) in 1:15. Filename: E:\Music\Eli Young Band\Level\03 So Close Now - Eli Young Band.flac
    Insecure [Pass 1, Ultra 1 to 1, Re-Rip 5745 Frames]
    Insecure [Pass 1, Ultra 1 to 1, Re-Rip 5745 Frames]
    ** Aborted: Have to ReRip 5745 Frames, Re-Rip Limit Set to 100 Frames

    Track 4: Ripped LBA 52305 to 69794 (3:53) in 2:05. Filename: E:\Music\Eli Young Band\Level\04 That's the Way - Eli Young Band.flac
    Insecure [Pass 1, Ultra 1 to 2, Re-Rip 9771 Frames]
    Insecure [Pass 1, Ultra 1 to 2, Re-Rip 9771 Frames]
    ** Aborted: Have to ReRip 9771 Frames, Re-Rip Limit Set to 100 Frames

    Track 5: Ripped LBA 69794 to 89982 (4:29) in 1:20. Filename: E:\Music\Eli Young Band\Level\05 Level - Eli Young Band.flac
    Insecure [Pass 1, Ultra 1 to 1, Re-Rip 8133 Frames]
    Insecure [Pass 1, Ultra 1 to 1, Re-Rip 8133 Frames]
    ** Aborted: Have to ReRip 8133 Frames, Re-Rip Limit Set to 100 Frames

    Track 6: Ripped LBA 89982 to 105752 (3:30) in 0:59. Filename: E:\Music\Eli Young Band\Level\06 Oklahoma Girl - Eli Young Band.flac
    Insecure [Pass 1, Ultra 1 to 1, Re-Rip 5411 Frames]
    Insecure [Pass 1, Ultra 1 to 1, Re-Rip 5411 Frames]
    ** Aborted: Have to ReRip 5411 Frames, Re-Rip Limit Set to 100 Frames

    Track 7: Ripped LBA 105752 to 122390 (3:41) in 0:59. Filename: E:\Music\Eli Young Band\Level\07 Everything Is You - Eli Young Band.flac
    Insecure [Pass 1, Ultra 1 to 1, Re-Rip 5774 Frames]
    Insecure [Pass 1, Ultra 1 to 1, Re-Rip 5774 Frames]
    ** Aborted: Have to ReRip 5774 Frames, Re-Rip Limit Set to 100 Frames

    Track 8: Ripped LBA 122390 to 136232 (3:04) in 0:47. Filename: E:\Music\Eli Young Band\Level\08 Girl in Red - Eli Young Band.flac
    Insecure [Pass 1, Ultra 1 to 1, Re-Rip 5519 Frames]
    Insecure [Pass 1, Ultra 1 to 1, Re-Rip 5519 Frames]
    ** Aborted: Have to ReRip 5519 Frames, Re-Rip Limit Set to 100 Frames

    Track 9: Ripped LBA 136232 to 150879 (3:15) in 0:48. Filename: E:\Music\Eli Young Band\Level\09 Bring It on Home - Eli Young Band.flac
    Insecure [Pass 1, Ultra 1 to 1, Re-Rip 5033 Frames]
    Insecure [Pass 1, Ultra 1 to 1, Re-Rip 5033 Frames]
    ** Aborted: Have to ReRip 5033 Frames, Re-Rip Limit Set to 100 Frames

    Track 10: Ripped LBA 150879 to 163546 (2:48) in 0:40. Filename: E:\Music\Eli Young Band\Level\10 I Call the Tune - Eli Young Band.flac
    Insecure [Pass 1, Ultra 1 to 1, Re-Rip 4369 Frames]
    Insecure [Pass 1, Ultra 1 to 1, Re-Rip 4369 Frames]
    ** Aborted: Have to ReRip 4369 Frames, Re-Rip Limit Set to 100 Frames

    Track 11: Ripped LBA 163546 to 182293 (4:09) in 0:58. Filename: E:\Music\Eli Young Band\Level\11 Highways and Broken Hearts - Eli Young Band.flac
    Insecure [Pass 1, Ultra 1 to 1, Re-Rip 6628 Frames]
    Insecure [Pass 1, Ultra 1 to 1, Re-Rip 6628 Frames]
    ** Aborted: Have to ReRip 6628 Frames, Re-Rip Limit Set to 100 Frames

    Track 12: Ripped LBA 182293 to 199484 (3:49) in 0:51. Filename: E:\Music\Eli Young Band\Level\12 Bottom Line - Eli Young Band.flac
    Insecure [Pass 1, Ultra 1 to 1, Re-Rip 9151 Frames]
    Insecure [Pass 1, Ultra 1 to 1, Re-Rip 9151 Frames]
    ** Aborted: Have to ReRip 9151 Frames, Re-Rip Limit Set to 100 Frames

    --------------

    12 Tracks Ripped Inaccurately

  2. #2
    Administrator
    Join Date
    Apr 2002
    Posts
    38,798

    Re: New user: Error on every track

    Disable c2 pointers, it does not look like your drive supports them correctly.

  3. #3

    Join Date
    May 2014
    Posts
    3

    Re: New user: Error on every track

    I turned C2 pointers off and that looks like it fixed the problem with all the tracks failing. This leads me to my next questions. should I get a drive that has a supports c2 pointers and if so can you recommend a good SATA drive I should purchase.

    Also I still get a few tracks that fail. Is this just due to a scrached CD? here is the new errors codes

    dBpoweramp Release 15 Digital Audio Extraction Log from Monday, May 05, 2014 12:14

    Drive & Settings
    ----------------

    Ripping with drive 'D: [HL-DT-ST - BD-RE WH10LS30 ]', Drive offset: 667, Overread Lead-in/out: No
    AccurateRip: Active, Using C2: No, Cache: 1024 KB, FUA Cache Invalidate: No
    Pass 1 Drive Speed: Max, Pass 2 Drive Speed: Max
    Ultra:: Vary Drive Speed: No, Min Passes: 2, Max Passes: 4, Finish After Clean Passes: 2
    Bad Sector Re-rip:: Drive Speed: Max, Maximum Re-reads: 34

    Encoder: FLAC -compression-level-5
    DSP Effects / Actions: -dspeffect1="ReplayGain=-albummode={qt}0{qt} -r128 -r128lufs={qt}-23{qt}" -dspeffect2="HDCD=" -dspeffect3="CUE Sheet - Multiple Files="

    Extraction Log
    --------------

    Track 1: Ripped LBA 0 to 16799 (3:43) in 0:31. Filename: E:\Music\Eli Young Band\Level\01 Small Town Kid - Eli Young Band.flac
    AccurateRip: Accurate (confidence 3) [Pass 1 & 2]
    CRC32: 508A73A2 AccurateRip CRC: A3C3AE35 [DiscID: 012-001439a7-00bb48a2-880a630c-1]
    AccurateRip Verified Confidence 3 [CRCv1 a3c3ae35]

    Track 2: Ripped LBA 16799 to 36023 (4:16) in 1:13. Filename: E:\Music\Eli Young Band\Level\02 When It Rains - Eli Young Band.flac
    Insecure [Pass 1 & 2, Ultra 1 to 4, Re-Rip 146 Frames]
    Insecure [Pass 1 & 2, Ultra 1 to 4, Re-Rip 146 Frames]
    ** Aborted: Have to ReRip 146 Frames, Re-Rip Limit Set to 100 Frames

    Track 3: Ripped LBA 36023 to 52305 (3:37) in 1:34. Filename: E:\Music\Eli Young Band\Level\03 So Close Now - Eli Young Band.flac
    Insecure [Pass 1 & 2, Ultra 1 to 4, Re-Rip 555 Frames]
    Insecure [Pass 1 & 2, Ultra 1 to 4, Re-Rip 555 Frames]
    ** Aborted: Have to ReRip 555 Frames, Re-Rip Limit Set to 100 Frames

    Track 4: Ripped LBA 52305 to 69794 (3:53) in 1:35. Filename: E:\Music\Eli Young Band\Level\04 That's the Way - Eli Young Band.flac
    Insecure [Pass 1 & 2, Ultra 1 to 4, Re-Rip 1800 Frames]
    Insecure [Pass 1 & 2, Ultra 1 to 4, Re-Rip 1800 Frames]
    ** Aborted: Have to ReRip 1800 Frames, Re-Rip Limit Set to 100 Frames

    Track 5: Ripped LBA 69794 to 89982 (4:29) in 1:41. Filename: E:\Music\Eli Young Band\Level\05 Level - Eli Young Band.flac
    Insecure [Pass 1 & 2, Ultra 1 to 4, Re-Rip 2071 Frames]
    Insecure [Pass 1 & 2, Ultra 1 to 4, Re-Rip 2071 Frames]
    ** Aborted: Have to ReRip 2071 Frames, Re-Rip Limit Set to 100 Frames

    Track 6: Ripped LBA 89982 to 105752 (3:30) in 0:24. Filename: E:\Music\Eli Young Band\Level\06 Oklahoma Girl - Eli Young Band.flac
    AccurateRip: Accurate (confidence 3) [Pass 1 & 2]
    CRC32: 9D1CA33C AccurateRip CRC: 8B56B273 [DiscID: 012-001439a7-00bb48a2-880a630c-6]
    AccurateRip Verified Confidence 3 [CRCv1 8b56b273]

    Track 7: Ripped LBA 105752 to 122390 (3:41) in 1:11. Filename: E:\Music\Eli Young Band\Level\07 Everything Is You - Eli Young Band.flac
    Insecure [Pass 1 & 2, Ultra 1 to 4, Re-Rip 194 Frames]
    Insecure [Pass 1 & 2, Ultra 1 to 4, Re-Rip 194 Frames]
    ** Aborted: Have to ReRip 194 Frames, Re-Rip Limit Set to 100 Frames

    Track 8: Ripped LBA 122390 to 136232 (3:04) in 0:36. Filename: E:\Music\Eli Young Band\Level\08 Girl in Red - Eli Young Band.flac
    Insecure [Pass 1 & 2, Ultra 1 to 4, Re-Rip 644 Frames]
    Insecure [Pass 1 & 2, Ultra 1 to 4, Re-Rip 644 Frames]
    ** Aborted: Have to ReRip 644 Frames, Re-Rip Limit Set to 100 Frames

    Track 9: Ripped LBA 136232 to 150879 (3:15) in 0:06. Filename: E:\Music\Eli Young Band\Level\09 Bring It on Home - Eli Young Band.flac
    AccurateRip: Accurate (confidence 3) [Pass 1]
    CRC32: AE135C1F AccurateRip CRC: CE216A62 [DiscID: 012-001439a7-00bb48a2-880a630c-9]
    AccurateRip Verified Confidence 3 [CRCv1 ce216a62]
    AccurateRip Verified Confidence 2 [CRCv2 dbd15341], Using Pressing Offset -646
    AccurateRip Verified Confidence 3 [CRCv1 15cde5d8], Using Pressing Offset -646
    AccurateRip Verified Confidence 3 [CRCv1 ce216a62]

    Track 10: Ripped LBA 150879 to 163546 (2:48) in 4:28. Filename: E:\Music\Eli Young Band\Level\10 I Call the Tune - Eli Young Band.flac
    Secure (Warning) [Pass 1 & 2, Ultra 1 to 4, Re-Rip 70 Frames]
    CRC32: 51208028 AccurateRip CRC: CE71D466 (CRCv2) [DiscID: 012-001439a7-00bb48a2-880a630c-10]

    Track 11: Ripped LBA 163546 to 182293 (4:09) in 1:06. Filename: E:\Music\Eli Young Band\Level\11 Highways and Broken Hearts - Eli Young Band.flac
    Insecure [Pass 1 & 2, Ultra 1 to 4, Re-Rip 347 Frames]
    Insecure [Pass 1 & 2, Ultra 1 to 4, Re-Rip 347 Frames]
    ** Aborted: Have to ReRip 347 Frames, Re-Rip Limit Set to 100 Frames

    Track 12: Ripped LBA 182293 to 199484 (3:49) in 0:57. Filename: E:\Music\Eli Young Band\Level\12 Bottom Line - Eli Young Band.flac
    Insecure [Pass 1 & 2, Ultra 1 to 4, Re-Rip 394 Frames]
    Insecure [Pass 1 & 2, Ultra 1 to 4, Re-Rip 394 Frames]
    ** Aborted: Have to ReRip 394 Frames, Re-Rip Limit Set to 100 Frames

    --------------

    12 Tracks Ripped: 3 Accurate, 1 Secure (Warning), 8 Inaccurate

  4. #4
    Administrator
    Join Date
    Apr 2002
    Posts
    38,798

    Re: New user: Error on every track

    Try different CDs to get a feel for your drive. If you are getting a high number of errors on seemingly undamged CDs then consider replacing the drive.

  5. #5

    Join Date
    May 2014
    Posts
    3

    Re: New user: Error on every track

    Spoon thank you for all your help. I have gotten a few CD's that had no scratches to rip perfectly, but the majority of my CD's that I am trying to rip have imperfections. I am seeing alot have errors or say insecure. I am also getting some that have a green checkmark and say secure, and there is a greyed out xAR beside it. I have included a picture of what I am talking about. Are these considered secure rips? ie bit for bit accurate of the CD? I also have the log if that is helpful. One last thing. If I was to purchase a new drive can you give me a recommendation of something currently in production?

    audioslave.jpgaudioslave.jpgaudioslave.jpg

  6. #6
    Administrator
    Join Date
    Apr 2002
    Posts
    38,798

    Re: New user: Error on every track

    They will not be secure if other tracks have an accuraterip verification or more than 2.

Posting Permissions

  • You may not post new threads
  • You may not post replies
  • You may not post attachments
  • You may not edit your posts
  •