title
Products            Buy            Support Forum            Professional            About            Codec Central
 
Page 2 of 2 FirstFirst 12
Results 16 to 23 of 23

Thread: How do I verify a ripped album(s)? [Step-by-step guide]

  1. #16

    Join Date
    Apr 2013
    Posts
    12

    Re: How do I verify a ripped album(s)? [Step-by-step guide]

    Quote Originally Posted by garym View Post
    no, one can spit a single flac with cue file into multiple tracks with no loss. still lossless. The one time I used cuetools, it also created a 00. HTOA track (which was not anything that played). Not sure why it did that, but didn't cause issues with other tracks created. Also, foobar2000 can convert a single flac/cue into separate flac tracks tool
    Ok, thanks. I was just curious if the files are still lossless after splitting the large file. Cheers.

  2. #17
    dBpoweramp Guru
    Join Date
    Nov 2007
    Location
    Florida, USA
    Posts
    4,349

    Re: How do I verify a ripped album(s)? [Step-by-step guide]

    Quote Originally Posted by eviL View Post
    Ok, thanks. I was just curious if the files are still lossless after splitting the large file. Cheers.
    you can even confirm this. if the album is in accurraterip database, after split into separate tracks, run perfecttunes on the album and you should get a match.

  3. #18

    Join Date
    Apr 2013
    Posts
    12

    Re: How do I verify a ripped album(s)? [Step-by-step guide]

    Quote Originally Posted by garym View Post
    you can even confirm this. if the album is in accurraterip database, after split into separate tracks, run perfecttunes on the album and you should get a match.
    PerfectTUNES log:
    Code:
    John Lennon - Imagine (CDP 7 46641 2)
      Track 1: AccurateRip Verified Confidence 8, Pressing Offset +290 [ARv2 CRC D0FC9D62]  D:\1970 - 1982 Jonn Lennon\1987 - Imagine (CDP 7 46641 2)\01. Imagine.flac
      Track 2: AccurateRip Verified Confidence 8, Pressing Offset +290 [ARv2 CRC 797D7DDA]  D:\1970 - 1982 Jonn Lennon\1987 - Imagine (CDP 7 46641 2)\02. Crippled Inside.flac
      Track 3: AccurateRip Verified Confidence 8, Pressing Offset +290 [ARv2 CRC CA826FD0]  D:\1970 - 1982 Jonn Lennon\1987 - Imagine (CDP 7 46641 2)\03. Jealous Guy.flac
      Track 4: AccurateRip Verified Confidence 8, Pressing Offset +290 [ARv2 CRC AFE41C83]  D:\1970 - 1982 Jonn Lennon\1987 - Imagine (CDP 7 46641 2)\04. It's So Hard.flac
      Track 5: AccurateRip Verified Confidence 8, Pressing Offset +290 [ARv2 CRC A7804893]  D:\1970 - 1982 Jonn Lennon\1987 - Imagine (CDP 7 46641 2)\05. I Don't Want To Be A Soldier.flac
      Track 6: AccurateRip Verified Confidence 8, Pressing Offset +290 [ARv2 CRC 7B0608E2]  D:\1970 - 1982 Jonn Lennon\1987 - Imagine (CDP 7 46641 2)\06. Give Me Some Truth.flac
      Track 7: AccurateRip Verified Confidence 8, Pressing Offset +290 [ARv2 CRC FA568A4C]  D:\1970 - 1982 Jonn Lennon\1987 - Imagine (CDP 7 46641 2)\07. Oh My Love.flac
      Track 8: AccurateRip Verified Confidence 8, Pressing Offset +290 [ARv2 CRC 122951EF]  D:\1970 - 1982 Jonn Lennon\1987 - Imagine (CDP 7 46641 2)\08. How Do You Sleep_.flac
      Track 9: AccurateRip Verified Confidence 8, Pressing Offset +290 [ARv2 CRC F3EE8751]  D:\1970 - 1982 Jonn Lennon\1987 - Imagine (CDP 7 46641 2)\09. How_.flac
      Track 10: AccurateRip Verified Confidence 8, Pressing Offset +290 [ARv2 CRC E939844D]  D:\1970 - 1982 Jonn Lennon\1987 - Imagine (CDP 7 46641 2)\10. Oh Yoko!.flac
    CUETools batch log:
    Code:
     
    [CUETools log; Date: 27.4.2013 &*1075;. 14:02:13; Version: 2.1.4]
    Pregap length 00:00:33.
    [CTDB TOCID: JmxBIeLDLFKSWTE5a4EWOqXUv6c-] found.
    Track | CTDB Status
      1   | (5/8) Accurately ripped
      2   | (7/8) Accurately ripped
      3   | (7/8) Accurately ripped
      4   | (7/8) Accurately ripped
      5   | (7/8) Accurately ripped
      6   | (8/8) Accurately ripped
      7   | (7/8) Accurately ripped
      8   | (7/8) Accurately ripped
      9   | (8/8) Accurately ripped
     10   | (8/8) Accurately ripped
    [AccurateRip ID: 000e5f02-00744251-92093c0a] found.
    Track   [  CRC   |   V2   ] Status
     01     [18cb656d|937d9fa8] (037+005/200) Accurately ripped
     02     [6f79894c|875a2ae9] (038+003/197) Accurately ripped
     03     [a4fa67bb|d6c4f31a] (038+004/199) Accurately ripped
     04     [69041163|7b24a8e4] (039+004/202) Accurately ripped
     05     [f889273c|ab1f640e] (036+004/197) Accurately ripped
     06     [bf9453a1|a3001868] (038+004/199) Accurately ripped
     07     [da1c8edf|70ed109c] (037+004/203) Accurately ripped
     08     [67f2d771|3752a792] (038+003/197) Accurately ripped
     09     [33616ca3|5987d92b] (037+004/199) Accurately ripped
     10     [fb5fa4da|5c0d911b] (036+004/200) Accurately ripped
    Offsetted by -1150:
     01     [f7cb0ae9] (029/200) Accurately ripped
     02     [4dc5476a] (026/197) Accurately ripped
     03     [febe8789] (029/199) Accurately ripped
     04     [cc55e921] (027/202) Accurately ripped
     05     [a0334ff8] (029/197) Accurately ripped
     06     [e8890153] (028/199) Accurately ripped
     07     [e4b55ea7] (030/203) Accurately ripped
     08     [e073f073] (027/197) Accurately ripped
     09     [c7c5c02f] (028/199) Accurately ripped
     10     [08f89e0e] (030/200) Accurately ripped
    Offsetted by -231:
     01     [2dfddb7b] (021/200) Accurately ripped
     02     [0214fe83] (021/197) Accurately ripped
     03     [0c44c00a] (021/199) Accurately ripped
     04     [adf0aaea] (021/202) Accurately ripped
     05     [52facdea] (020/197) Accurately ripped
     06     [cf98f412] (020/199) Accurately ripped
     07     [8b35e923] (021/203) Accurately ripped
     08     [e9abb74a] (019/197) Accurately ripped
     09     [95f95c79] (021/199) Accurately ripped
     10     [9d0c2c64] (020/200) Accurately ripped
    Offsetted by 290:
     01     [9b8d27a9] (086/200) Accurately ripped
     02     [b887d3ca] (087/197) Accurately ripped
     03     [f93192e9] (084/199) Accurately ripped
     04     [d5890781] (088/202) Accurately ripped
     05     [805790b8] (086/197) Accurately ripped
     06     [e1c5edf3] (087/199) Accurately ripped
     07     [a2036127] (088/203) Accurately ripped
     08     [c1c4ee13] (087/197) Accurately ripped
     09     [21fea9ef] (086/199) Accurately ripped
     10     [ea96904e] (087/200) Accurately ripped
    Offsetted by 1128:
     01     [9d56a69d] (007/200) Accurately ripped
     02     [253c9964] (007/197) Accurately ripped
     03     [6d6e1f93] (007/199) Accurately ripped
     04     [3d05b5fb] (007/202) Accurately ripped
     05     [34e9d16c] (006/197) Accurately ripped
     06     [42d0d9c9] (006/199) Accurately ripped
     07     [72aabb7f] (007/203) Accurately ripped
     08     [698359d9] (007/197) Accurately ripped
     09     [f1857913] (007/199) Accurately ripped
     10     [fd2c6f6a] (007/200) Accurately ripped
    Offsetted by 652:
     01     [4ce56b55] (000/200) No match (V2 was not tested)
     02     [7a1fd880] (000/197) No match (V2 was not tested)
     03     [8054e50f] (000/199) No match (V2 was not tested)
     04     [75b6f257] (000/202) No match (V2 was not tested)
     05     [068e30a4] (000/197) No match (V2 was not tested)
     06     [d06dc74d] (000/199) No match (V2 was not tested)
     07     [99c7b38f] (000/203) No match (V2 was not tested)
     08     [0074aafd] (000/197) No match (V2 was not tested)
     09     [4851f2eb] (000/199) No match (V2 was not tested)
     10     [beaefb12] (000/200) No match (V2 was not tested)
    
    Track Peak [ CRC32  ] [W/O NULL] [  LOG   ]
     --   99.1 [F030D836] [7ED303B6]   CRC32   
     01   99.0 [113D9C01] [A86799F7]           
     02   99.1 [9218FC01] [E436E1F0]           
     03   84.2 [A3AB9A65] [2BFC96FE]           
     04   97.7 [7DFCAA58] [C61D58B1]           
     05   87.3 [E160B0C6] [128A59C1]           
     06   96.9 [D1F7137C] [EFA60A54]           
     07   64.2 [B7E2B765] [052FFFCA]           
     08   85.2 [2936A4D9] [0E313C61]           
     09   87.2 [F607E5B0] [1FBC6A52]           
     10   89.2 [E31AA516] [0B262BAE]

  4. #19
    dBpoweramp Guru
    Join Date
    Nov 2007
    Location
    Florida, USA
    Posts
    4,349

    Re: How do I verify a ripped album(s)? [Step-by-step guide]

    yes, so your logs do in fact confirm that you have accuraterip matches on the album with separate tracks.

  5. #20

    Join Date
    Apr 2013
    Posts
    12

    Re: How do I verify a ripped album(s)? [Step-by-step guide]

    Quote Originally Posted by garym View Post
    yes, so your logs do in fact confirm that you have accuraterip matches on the album with separate tracks.
    Thanks.

  6. #21
    dBpoweramp Guru
    Join Date
    Nov 2007
    Location
    Florida, USA
    Posts
    4,349

    Re: How do I verify a ripped album(s)? [Step-by-step guide]

    Quote Originally Posted by garym View Post
    no, one can spit a single flac with cue file into multiple tracks with no loss. still lossless. The one time I used cuetools, it also created a 00. HTOA track (which was not anything that played). Not sure why it did that, but didn't cause issues with other tracks created. Also, foobar2000 can convert a single flac/cue into separate flac tracks tool
    Note that this is generally true with a program that can split singlefile/cue file properly. I'm sure there are some programs floating around that don't do it correctly. But cuetools and foobar2000 certainly work. And your accuraterip matches above confirmed that it worked.

  7. #22

    Join Date
    Apr 2013
    Posts
    12

    Re: How do I verify a ripped album(s)? [Step-by-step guide]

    If I convert ALAC (or any other compressed format except FLAC) to WAV, do I lose any quality?

  8. #23
    dBpoweramp Guru
    Join Date
    Nov 2007
    Location
    Florida, USA
    Posts
    4,349

    Re: How do I verify a ripped album(s)? [Step-by-step guide]

    Quote Originally Posted by eviL View Post
    If I convert ALAC (or any other compressed format except FLAC) to WAV, do I lose any quality?
    No. Lossless is lossless. WAV=FLAC=ALAC. And even if you convert a lossy file (mp3, m4a) to WAV, you won't lose any quality. The WAV file will contain exactly what the lossy file contained (albeit in a much larger file container).

Tags for this Thread

Posting Permissions

  • You may not post new threads
  • You may not post replies
  • You may not post attachments
  • You may not edit your posts
  •