About 10% of my CDs are having trouble ripping the last 1-3 tracks. At first I was running with the default settings for CD Ripper. I ran into a couple of last track errors which I was able to recover by ripping again 2-3 times.

After I started finding more CDs with trouble I reset options to match the dBpoweramp CD Ripper: Setup Guide

I am still having no luck ripping some of these tracks. The CD looks pristine, and is clean. I have tried this both on my main drive, a SATA connected Lite-on DVDRW LH-20A1S, and a backup USB2.0 connected HP DVD Writer 840d.

Example errors follow

If it was just one isolated CD, or just one drive, I would just think it was a damaged CD, but I'm running into this frequently.

Any ideas?

Thanks,

Ed

Information ripping to Apple Lossless, 'Track 18' to 'C:\Users\EllenEd\Music\Van Morrison\The Best of Van Morrison\18 Van Morrison - Whenever God Shines His Light.m4a'
** Reached Maximum 1 Unrecoverable Frames For This Track
Track 18: Ripped LBA 278198 to 300265 (4:54) in 3:12. Filename: C:\Users\EllenEd\Music\Van Morrison\The Best of Van Morrison\18 Van Morrison - Whenever God Shines His Light.m4a
Insecure [Pass 1, Ultra 1 to 2, Re-Rip 82 Frames]
CRC32: 543107B4 AccurateRip CRC: FC466C82 (CRCv2) [DiscID: 020-00345c99-030495c8-0f11e614-18]
** Reached Maximum 1 Unrecoverable Frames For This Track


Information ripping to Apple Lossless, 'Track 19' to 'C:\Users\EllenEd\Music\Van Morrison\The Best of Van Morrison\19 Van Morrison - Queen of the Slipstream.m4a'
** Reached Maximum 1 Unrecoverable Frames For This Track
Track 19: Ripped LBA 300265 to 322398 (4:55) in 4:09. Filename: C:\Users\EllenEd\Music\Van Morrison\The Best of Van Morrison\19 Van Morrison - Queen of the Slipstream.m4a
Insecure [Pass 1, Ultra 1 to 2, Re-Rip 11 Frames]
CRC32: 5B066028 AccurateRip CRC: 7F79B77A (CRCv2) [DiscID: 020-00345c99-030495c8-0f11e614-19]
** Reached Maximum 1 Unrecoverable Frames For This Track



Information ripping to Apple Lossless, 'Track 20' to 'C:\Users\EllenEd\Music\Van Morrison\The Best of Van Morrison\20 Van Morrison - Dweller on the Threshold.m4a'
** Reached Maximum 1 Unrecoverable Frames For This Track
Track 20: Ripped LBA 322398 to 343718 (4:44) in 2:09. Filename: C:\Users\EllenEd\Music\Van Morrison\The Best of Van Morrison\20 Van Morrison - Dweller on the Threshold.m4a
Insecure [Pass 1, Ultra 1 to 1, Re-Rip 4 Frames]
CRC32: 1AF27DD4 AccurateRip CRC: 495632B8 (CRCv2) [DiscID: 020-00345c99-030495c8-0f11e614-20]
** Reached Maximum 1 Unrecoverable Frames For This Track