Hi

I have the latest version of CD Ripper (14.3 Reference). I'm not too sure what has changed, but I had followed all the setting recommended for secure ripping, setting C2 pointers etc. I have previously ripped many CDs before I now hit the same error every time

"Information ripping to FLAC, 'Track 1' to 'C:\Ripped Music\Simple Minds\New Gold Dream (81-82-83-84)\01 Simple Minds - Someone, Somewhere in Summertime.flac'
Track 1: ERROR Ripping LBA 0 to 20835 (4:37) in 0:33. Filename: C:\Ripped Music\Simple Minds\New Gold Dream (81-82-83-84)\01 Simple Minds - Someone, Somewhere in Summertime.flac
Unable to read CD, check CD disc (frame LBA 0 ripping 26 frames track end LBA 20835)

Information ripping to FLAC, 'Track 2' to 'C:\Ripped Music\Simple Minds\New Gold Dream (81-82-83-84)\02 Simple Minds - Colours Fly and Catherine Wheel.flac'
Track 2: ERROR Ripping LBA 20835 to 38084 (3:49) in 0:31. Filename: C:\Ripped Music\Simple Minds\New Gold Dream (81-82-83-84)\02 Simple Minds - Colours Fly and Catherine Wheel.flac
Unable to read CD, check CD disc (frame LBA 20835 ripping 26 frames track end LBA 38084)"

Same error every time with a variety of CDs - I can rip the CD if I use burst mode, but I want the best quality rips I can get. I use an Imac for this process.

As as test I then setup the same configuration on my Macbook Pro and similarly cannot rip any tracks (I have tried a few different CDs). This one gives the same error every time but with a variable re the number of frames that need to be re-ripped.

"Information ripping to FLAC, 'Track 1' to 'C:\Ripped Music\Simple Minds\New Gold Dream (81-82-83-84)\01 Simple Minds - Someone, Somewhere in Summertime.flac'
** Aborted: Have to ReRip 4169 Frames, Re-Rip Limit Set to 100 Frames
Track 1: Ripped LBA 0 to 20835 (4:37) in 1:37. Filename: C:\Ripped Music\Simple Minds\New Gold Dream (81-82-83-84)\01 Simple Minds - Someone, Somewhere in Summertime.flac
Insecure [Pass 1, Ultra 1 to 1, Re-Rip 4169 Frames]
Insecure [Pass 1, Ultra 1 to 1, Re-Rip 4169 Frames]
** Aborted: Have to ReRip 4169 Frames, Re-Rip Limit Set to 100 Frames

Information ripping to FLAC, 'Track 3' to 'C:\Ripped Music\Simple Minds\New Gold Dream (81-82-83-84)\03 Simple Minds - Promised You a Miracle.flac'
Track 3: Ripped LBA 38084 to 58162 (4:27) in 0:08. Filename: C:\Ripped Music\Simple Minds\New Gold Dream (81-82-83-84)\03 Simple Minds - Promised You a Miracle.flac
[Pass 1]
CRC32: 4E1BCFA9 AccurateRip CRC: 00000000 [DiscID: 009-000eaf74-006d53ce-8f0acf09-3]

Information ripping to FLAC, 'Track 2' to 'C:\Ripped Music\Simple Minds\New Gold Dream (81-82-83-84)\02 Simple Minds - Colours Fly and Catherine Wheel.flac'
** Aborted: Have to ReRip 3467 Frames, Re-Rip Limit Set to 100 Frames
Track 2: Ripped LBA 20835 to 38084 (3:49) in 1:12. Filename: C:\Ripped Music\Simple Minds\New Gold Dream (81-82-83-84)\02 Simple Minds - Colours Fly and Catherine Wheel.flac
Insecure [Pass 1, Ultra 1 to 1, Re-Rip 3467 Frames]
Insecure [Pass 1, Ultra 1 to 1, Re-Rip 3467 Frames]
** Aborted: Have to ReRip 3467 Frames, Re-Rip Limit Set to 100 Frames"

I'm at a bit of a loss - can anyone help?