title
Products            Buy            Support Forum            Professional            About            Codec Central
 
Results 1 to 4 of 4

Thread: Ripping album errors on last track, same track individually appears ok?

  1. #1

    Join Date
    Jul 2012
    Posts
    4

    Ripping album errors on last track, same track individually appears ok?

    Hi, I'm new to dBpoweramp and have just downloaded and installed the current version (R14.2). I've followed the 'CD Ripper Secure Ripping Setup Guide' guide, with the only changes being to the path of the ripped files (now set to a mapped drive to my NAS) and one of the metadata settings (unchecked changing 'The [artist]' to '[artist], The').
    My first couple of CDs went through with no problems, however on the 3rd disc 'Bimbling' by 'Martha Tilston' I hit an error. The last track (13) seems to fail, however if I then try to just rip that individual track it works...I think - see the output log below. The only thing about track 13 that may be a little out of the ordinary is that it is just under 23 minutes and has 2 sizable gaps of silence during it, one about 2 mins the other 4 mins. I've tried the process twice and the problem was consistent.
    Looking at the log it would seem the rip has been successful overall, but is there a reason why the track won't rip as part of the album but will on its own? Is there something I should change in the setup?
    Thanks in advance...

    dBpoweramp Release 14.2 Digital Audio Extraction Log from 18 July 2012 07:26 PM

    Drive & Settings
    ----------------

    Ripping with drive 'M: [HL-DT-ST - DVDRAM GSA-H10N ]', Drive offset: 667, Overread Lead-in/out: No
    AccurateRip: Active, Using C2: Yes, Cache: 1024 KB, FUA Cache Invalidate: No
    Pass 1 Drive Speed: Max, Pass 2 Drive Speed: Max
    Ultra:: Vary Drive Speed: No, Min Passes: 1, Max Passes: 2, Finish After Clean Passes: 1
    Bad Sector Re-rip:: Drive Speed: Max, Maximum Re-reads: 60

    Encoder: FLAC -compression-level-5 -verify

    Extraction Log
    --------------

    Track 1: Ripped LBA 0 to 26747 (5:56) in 0:18. Filename: N:\Martha Tilston\Bimbling\01 - Space.flac
    AccurateRip: Accurate (confidence 3) [Pass 1]
    CRC32: 849EF325 AccurateRip CRC: D2AA76D0 (CRCv2) [DiscID: 013-001c9474-011ed30b-ce11060d-1]
    AccurateRip Verified Confidence 3 [CRCv2 d2aa76d0]
    AccurateRip Verified Confidence 6 [CRCv1 4023da04]
    AccurateRip Verified Confidence 3 [CRCv2 d2aa76d0]
    AccurateRip Verified Confidence 6 [CRCv1 4023da04]

    Track 2: Ripped LBA 26747 to 49016 (4:56) in 0:13. Filename: N:\Martha Tilston\Bimbling\02 - Red.flac
    AccurateRip: Accurate (confidence 3) [Pass 1]
    CRC32: 9367B028 AccurateRip CRC: B1B2DF61 (CRCv2) [DiscID: 013-001c9474-011ed30b-ce11060d-2]
    AccurateRip Verified Confidence 3 [CRCv2 b1b2df61]
    AccurateRip Verified Confidence 6 [CRCv1 73dee008]
    AccurateRip Verified Confidence 3 [CRCv2 b1b2df61]
    AccurateRip Verified Confidence 6 [CRCv1 73dee008]

    Track 3: Ripped LBA 49016 to 64286 (3:23) in 0:08. Filename: N:\Martha Tilston\Bimbling\03 - Firefly.flac
    AccurateRip: Accurate (confidence 3) [Pass 1]
    CRC32: 31311B5A AccurateRip CRC: 16134FF0 (CRCv2) [DiscID: 013-001c9474-011ed30b-ce11060d-3]
    AccurateRip Verified Confidence 3 [CRCv2 16134ff0]
    AccurateRip Verified Confidence 6 [CRCv1 162fe556]
    AccurateRip Verified Confidence 3 [CRCv2 16134ff0]
    AccurateRip Verified Confidence 6 [CRCv1 162fe556]

    Track 4: Ripped LBA 64286 to 80543 (3:36) in 0:08. Filename: N:\Martha Tilston\Bimbling\04 - Seagull.flac
    AccurateRip: Accurate (confidence 3) [Pass 1]
    CRC32: 05CA8CC0 AccurateRip CRC: 78FC2E5F (CRCv2) [DiscID: 013-001c9474-011ed30b-ce11060d-4]
    AccurateRip Verified Confidence 3 [CRCv2 78fc2e5f]
    AccurateRip Verified Confidence 6 [CRCv1 f63f596c]
    AccurateRip Verified Confidence 3 [CRCv2 78fc2e5f]
    AccurateRip Verified Confidence 6 [CRCv1 f63f596c]

    Track 5: Ripped LBA 80543 to 103064 (5:00) in 0:11. Filename: N:\Martha Tilston\Bimbling\05 - Brighton Song.flac
    AccurateRip: Accurate (confidence 3) [Pass 1]
    CRC32: 6B41AEEA AccurateRip CRC: DDC667F4 (CRCv2) [DiscID: 013-001c9474-011ed30b-ce11060d-5]
    AccurateRip Verified Confidence 3 [CRCv2 ddc667f4]
    AccurateRip Verified Confidence 6 [CRCv1 70143f27]
    AccurateRip Verified Confidence 3 [CRCv2 ddc667f4]
    AccurateRip Verified Confidence 6 [CRCv1 70143f27]

    Track 6: Ripped LBA 103064 to 120541 (3:53) in 0:08. Filename: N:\Martha Tilston\Bimbling\06 - Tribal Kidz.flac
    AccurateRip: Accurate (confidence 3) [Pass 1]
    CRC32: 981A86D6 AccurateRip CRC: 1ED344CE (CRCv2) [DiscID: 013-001c9474-011ed30b-ce11060d-6]
    AccurateRip Verified Confidence 3 [CRCv2 1ed344ce]
    AccurateRip Verified Confidence 6 [CRCv1 d7e243ea]
    AccurateRip Verified Confidence 3 [CRCv2 1ed344ce]
    AccurateRip Verified Confidence 6 [CRCv1 d7e243ea]

    Track 7: Ripped LBA 120541 to 140931 (4:31) in 0:09. Filename: N:\Martha Tilston\Bimbling\07 - Mary and the Prince.flac
    AccurateRip: Accurate (confidence 3) [Pass 1]
    CRC32: 44444F30 AccurateRip CRC: 906C2D55 (CRCv2) [DiscID: 013-001c9474-011ed30b-ce11060d-7]
    AccurateRip Verified Confidence 3 [CRCv2 906c2d55]
    AccurateRip Verified Confidence 6 [CRCv1 f6199ca3]
    AccurateRip Verified Confidence 3 [CRCv2 906c2d55]
    AccurateRip Verified Confidence 6 [CRCv1 f6199ca3]

    Track 8: Ripped LBA 140931 to 149154 (1:49) in 0:03. Filename: N:\Martha Tilston\Bimbling\08 - Monkey Boy.flac
    AccurateRip: Accurate (confidence 3) [Pass 1]
    CRC32: 40D14D95 AccurateRip CRC: 2BEBAB5A (CRCv2) [DiscID: 013-001c9474-011ed30b-ce11060d-8]
    AccurateRip Verified Confidence 3 [CRCv2 2bebab5a]
    AccurateRip Verified Confidence 6 [CRCv1 67a8e10a]
    AccurateRip Verified Confidence 3 [CRCv2 2bebab5a]
    AccurateRip Verified Confidence 6 [CRCv1 67a8e10a]

    Track 9: Ripped LBA 149154 to 172823 (5:15) in 0:10. Filename: N:\Martha Tilston\Bimbling\09 - Over to Ireland.flac
    AccurateRip: Accurate (confidence 3) [Pass 1]
    CRC32: DC1001D8 AccurateRip CRC: BDCA89C0 (CRCv2) [DiscID: 013-001c9474-011ed30b-ce11060d-9]
    AccurateRip Verified Confidence 3 [CRCv2 bdca89c0]
    AccurateRip Verified Confidence 6 [CRCv1 415e865e]
    AccurateRip Verified Confidence 3 [CRCv2 bdca89c0]
    AccurateRip Verified Confidence 6 [CRCv1 415e865e]

    Track 10: Ripped LBA 172823 to 192171 (4:17) in 0:07. Filename: N:\Martha Tilston\Bimbling\10 - Cycles.flac
    AccurateRip: Accurate (confidence 3) [Pass 1]
    CRC32: 8587AA10 AccurateRip CRC: 47598E2D (CRCv2) [DiscID: 013-001c9474-011ed30b-ce11060d-10]
    AccurateRip Verified Confidence 3 [CRCv2 47598e2d]
    AccurateRip Verified Confidence 6 [CRCv1 b84e939d]
    AccurateRip Verified Confidence 3 [CRCv2 47598e2d]
    AccurateRip Verified Confidence 6 [CRCv1 b84e939d]

    Track 11: Ripped LBA 192171 to 222654 (6:46) in 0:11. Filename: N:\Martha Tilston\Bimbling\11 - The Numbness.flac
    AccurateRip: Accurate (confidence 3) [Pass 1]
    CRC32: 83F50C76 AccurateRip CRC: 821D28E2 (CRCv2) [DiscID: 013-001c9474-011ed30b-ce11060d-11]
    AccurateRip Verified Confidence 3 [CRCv2 821d28e2]
    AccurateRip Verified Confidence 6 [CRCv1 fd6619de]
    AccurateRip Verified Confidence 3 [CRCv2 821d28e2]
    AccurateRip Verified Confidence 6 [CRCv1 fd6619de]

    Track 12: Ripped LBA 222654 to 224191 (0:20) in 0:00. Filename: N:\Martha Tilston\Bimbling\12 - Sprig of Thyme.flac
    AccurateRip: Accurate (confidence 3) [Pass 1]
    CRC32: F942D10C AccurateRip CRC: 82C2F203 (CRCv2) [DiscID: 013-001c9474-011ed30b-ce11060d-12]
    AccurateRip Verified Confidence 3 [CRCv2 82c2f203]
    AccurateRip Verified Confidence 6 [CRCv1 77b417ea]
    AccurateRip Verified Confidence 3 [CRCv2 82c2f203]
    AccurateRip Verified Confidence 6 [CRCv1 77b417ea]

    Track 13: Ripped LBA 224191 to 326891 (22:49) in 2:52. Filename: N:\Martha Tilston\Bimbling\13 - Firewood.flac
    Insecure [Pass 1, Ultra 1 to 2, Re-Rip 2683 Frames]
    Insecure [Pass 1, Ultra 1 to 2, Re-Rip 2683 Frames]
    ** Aborted: Have to ReRip 2683 Frames, Re-Rip Limit Set to 100 Frames

    --------------

    13 Tracks Ripped: 12 Accurate, 1 Inaccurate


    ====================

    dBpoweramp Release 14.2 Digital Audio Extraction Log from 18 July 2012 07:33 PM

    Drive & Settings
    ----------------

    Ripping with drive 'M: [HL-DT-ST - DVDRAM GSA-H10N ]', Drive offset: 667, Overread Lead-in/out: No
    AccurateRip: Active, Using C2: Yes, Cache: 1024 KB, FUA Cache Invalidate: No
    Pass 1 Drive Speed: Max, Pass 2 Drive Speed: Max
    Ultra:: Vary Drive Speed: No, Min Passes: 1, Max Passes: 2, Finish After Clean Passes: 1
    Bad Sector Re-rip:: Drive Speed: Max, Maximum Re-reads: 60

    Encoder: FLAC -compression-level-5 -verify

    Extraction Log
    --------------

    Track 13: Ripped LBA 224191 to 326891 (22:49) in 0:59. Filename: N:\Martha Tilston\Bimbling\13 - Firewood.flac
    AccurateRip: Accurate (confidence 2) [Pass 1]
    CRC32: 9D5AA884 AccurateRip CRC: 74E4F32D (CRCv2) [DiscID: 013-001c9474-011ed30b-ce11060d-13]
    AccurateRip Verified Confidence 2 [CRCv2 74e4f32d]
    AccurateRip Verified Confidence 6 [CRCv1 fb06eb4]
    AccurateRip Verified Confidence 2 [CRCv2 74e4f32d]
    AccurateRip Verified Confidence 6 [CRCv1 fb06eb4]

    --------------

    1 Tracks Ripped Accurately

  2. #2
    Administrator
    Join Date
    Apr 2002
    Posts
    39,048

    Re: Ripping album errors on last track, same track individually appears ok?

    The later rip was verified, so it is ok.

    The first rip, the CD drive perhaps had a problem with the last track (lost tracking information on the disc).

  3. #3

    Join Date
    Jul 2012
    Posts
    4

    Re: Ripping album errors on last track, same track individually appears ok?

    Thanks for the reply Spoon - I've since found a couple more CDs that had problems with the last track, initially, I couldn't get them to rip either as part of the album rip or individually. Howver, after some experimentation I found that if I dropped the Ripping Speed from Maximum to 10x they worked ok. The pattern so far seems to be only discs with a higher track count are troublesome, I'm guessing due to the volume of data this puts the last track that bit closer to the edge of the disc and that my drive isn't managing this well when set to maximum, but when the speed is capped it becomes more reliable? - hopefully this may help others with a similar issue.
    Can you confirm that ripping direct to a NAS via a mapped drive is ok/still secure - I've checked the 'After Encoding Verify Written Audio' so would I be right in thinking this verfies the copy on the NAS or is it a local cached copy that gets verified and then copied/moved to the NAS after verification?

  4. #4
    Administrator
    Join Date
    Apr 2002
    Posts
    39,048

    Re: Ripping album errors on last track, same track individually appears ok?

    Ripping to the NAS should not be a problem, with the verify option on.

Tags for this Thread

Posting Permissions

  • You may not post new threads
  • You may not post replies
  • You may not post attachments
  • You may not edit your posts
  •