title
Products            Buy            Support Forum            Professional            About            Codec Central
 
Results 1 to 5 of 5

Thread: "error ripping to aiff, track 7........error failed to create output file" ??

  1. #1
    dBpoweramp Enthusiast
    Join Date
    Jan 2012
    Posts
    56

    "error ripping to aiff, track 7........error failed to create output file" ??

    When I try to rip files I get a double report, one saying AR confidence X all is fine on every track, and and Errors report, also for every track, that says what I posted above. The folder destination lists the songs, but there is no musical content. Did I inadvertently check the wrong box somewhere?. This wasn't happening before.
    Last edited by audiojim; 02-29-2012 at 12:15 PM.

  2. #2
    Administrator
    Join Date
    Apr 2002
    Posts
    39,011

    Re: "error ripping to aiff, track 7........error failed to create output file" ??

    Please post the full error message from the log (there is a copy errors to clipboard button).

  3. #3
    dBpoweramp Enthusiast
    Join Date
    Jan 2012
    Posts
    56

    Re: "error ripping to aiff, track 7........error failed to create output file" ??

    ONE TRACK EXAMPLE that resulted in two reports:

    Information ripping to Aiff, 'Track 7' to 'D:\samsung-db-aiff-report-postallf29\Bob Dylan\I'm Not There, Disc 1\07 John Doe - Pressing On.aif'
    Track 7: Ripped LBA 151039 to 177789 (5:56) in 0:25. Filename: D:\samsung-db-aiff-report-postallf29\Bob Dylan\I'm Not There, Disc 1\07 John Doe - Pressing On.aif
    AccurateRip: Accurate (confidence 3) [Pass 1]
    "CRC32: 0F89A541 AccurateRip CRC: C3D059DB (CRCv2) [DiscID: 016-00308ac9-02430675-e312a610-7]
    AccurateRip Verified Confidence 3 [CRCv2 c3d059db]
    AccurateRip Verified Confidence 61 [CRCv1 78a760e0]
    AccurateRip Verified Confidence 6 [CRCv2 c3502158], Using Pressing Offset -12
    AccurateRip Verified Confidence 67 [CRCv1 7280805c], Using Pressing Offset -12"

    "Error ripping to Aiff, 'Track 7' to 'D:\samsung-db-aiff-report-postallf29\Bob Dylan\I'm Not There, Disc 1\07 John Doe - Pressing On.aif'
    Error failed to create output file. [clEncoder::BeginConversion]"


    ANOTHER EXAMPLE:

    Information ripping to Aiff, 'Track 1' to 'D:\samsung-db-aiff-report-postallf29\van morrison\No Prima Donna; The Songs of Van Morrison\01 Sinéad O'Connor - You Make Me Feel So Free.aif'
    Track 1: Ripped LBA 32 to 21602 (4:47) in 1:07. Filename: D:\samsung-db-aiff-report-postallf29\van morrison\No Prima Donna; The Songs of Van Morrison\01 Sinéad O'Connor - You Make Me Feel So Free.aif
    AccurateRip: Accurate (confidence 9) [Pass 1]
    CRC32: D686BC6E AccurateRip CRC: 8072C9C4 [DiscID: 010-000f32fe-0078ffe1-9609600a-1]
    AccurateRip Verified Confidence 9 [CRCv1 8072c9c4]
    AccurateRip Verified Confidence 6 [CRCv1 4259e8b], Using Pressing Offset +1262

    Information ripping to Aiff, 'Track 3' to 'D:\samsung-db-aiff-report-postallf29\van morrison\No Prima Donna; The Songs of Van Morrison\03 Liam Neeson - Coney Island.aif'
    Track 3: Ripped LBA 42142 to 52905 (2:23) in 0:18. Filename: D:\samsung-db-aiff-report-postallf29\van morrison\No Prima Donna; The Songs of Van Morrison\03 Liam Neeson - Coney Island.aif
    [Pass 1]
    CRC32: 49AB1293 AccurateRip CRC: 00000000 [DiscID: 010-000f32fe-0078ffe1-9609600a-3]

    Information ripping to Aiff, 'Track 2' to 'D:\samsung-db-aiff-report-postallf29\van morrison\No Prima Donna; The Songs of Van Morrison\02 Brian Kennedy - Queen of the Slipstream.aif'
    Track 2: Ripped LBA 21602 to 42142 (4:33) in 0:57. Filename: D:\samsung-db-aiff-report-postallf29\van morrison\No Prima Donna; The Songs of Van Morrison\02 Brian Kennedy - Queen of the Slipstream.aif
    AccurateRip: Accurate (confidence 9) [Pass 1]
    CRC32: 34945639 AccurateRip CRC: 9C1A00A7 [DiscID: 010-000f32fe-0078ffe1-9609600a-2]
    AccurateRip Verified Confidence 9 [CRCv1 9c1a00a7]
    AccurateRip Verified Confidence 6 [CRCv1 c4502e4c], Using Pressing Offset +1262

    Error ripping to Aiff, 'Track 1' to 'D:\samsung-db-aiff-report-postallf29\van morrison\No Prima Donna; The Songs of Van Morrison\01 Sinéad O'Connor - You Make Me Feel So Free.aif'
    Error failed to create output file. [clEncoder::BeginConversion]

    Error ripping to Aiff, 'Track 3' to 'D:\samsung-db-aiff-report-postallf29\van morrison\No Prima Donna; The Songs of Van Morrison\03 Liam Neeson - Coney Island.aif'
    Error failed to create output file. [clEncoder::BeginConversion]

    Error ripping to Aiff, 'Track 2' to 'D:\samsung-db-aiff-report-postallf29\van morrison\No Prima Donna; The Songs of Van Morrison\02 Brian Kennedy - Queen of the Slipstream.aif'
    Error failed to create output file. [clEncoder::BeginConversion]

  4. #4
    Administrator
    Join Date
    Apr 2002
    Posts
    39,011

    Re: "error ripping to aiff, track 7........error failed to create output file" ??

    The Error is something is stopping dBpoweramp from writing to your D: drive.

    What is D:?

  5. #5
    dBpoweramp Enthusiast
    Join Date
    Jan 2012
    Posts
    56

    Re: "error ripping to aiff, track 7........error failed to create output file" ??

    Quote Originally Posted by Spoon View Post
    The Error is something is stopping dBpoweramp from writing to your D: drive.

    What is D:?
    Oops. I realize now that Drive D (which is the main hard disk drive on the netbook, for whatever reason), is now full. So, my goofup. I knew that it was getting near full but just assumed that something would say "can't write to file, not sufficient disk space", which is what happens when I, for example, you try to move or copy files to a thumb drive.

Posting Permissions

  • You may not post new threads
  • You may not post replies
  • You may not post attachments
  • You may not edit your posts
  •