title
Products            Buy            Support Forum            Professional            About            Codec Central
 
Results 1 to 5 of 5

Thread: Single encoder writes files. Multi-encoder does not.

  1. #1

    Join Date
    Jul 2011
    Location
    Osaka
    Posts
    3

    Single encoder writes files. Multi-encoder does not.

    I'm running dbpoweramp R14.1 on Windows Ultimate. I'm not able to rip files from CD to my external hard drive using multi-encoder option. I'm trying to write FLAC and MP3. With a single encoder only, no problem. With multi-encoder, the log turns out that a file was encoded to a location I have specified in 'Dynamic', but the file ext. says '.IGNORE'. However, NO file has actually been written. I have turned off Real-time file protection in Windows, done various options to see if I could narrow it down, but can't get M-E to work. Any ideas I can try? Thank you!
    -Chris Sharp

    here's my log file:

    Information ripping to [Multi Encoder], 'Track 18' to 'H:\Audio\MP3\Various Artists\Pop-Rock\Sampled, Disc 2\Cantaloupe Island - Sampled, Disc 2 - Herbie Hancock - 2000.IGNORE'
    Track 18: Ripped LBA 281285 to 299617 (4:04) in 0:15. Filename: H:\Audio\MP3\Various Artists\Pop-Rock\Sampled, Disc 2\Cantaloupe Island - Sampled, Disc 2 - Herbie Hancock - 2000.IGNORE
    AccurateRip: Accurate (confidence 15) [Pass 1]
    CRC32: 14A8776A AccurateRip CRC: C45569E8 [DiscID: 020-0037fb87-03282a47-3b126314-18]
    AccurateRip Verified Confidence 15 [CRCv1 c45569e8]

    Information ripping to [Multi Encoder], 'Track 19' to 'H:\Audio\MP3\Various Artists\Pop-Rock\Sampled, Disc 2\Is It Because I'm Black - Sampled, Disc 2 - Sly Johnson - 2000.IGNORE'
    Track 19: Ripped LBA 299617 to 322535 (5:05) in 0:15. Filename: H:\Audio\MP3\Various Artists\Pop-Rock\Sampled, Disc 2\Is It Because I'm Black - Sampled, Disc 2 - Sly Johnson - 2000.IGNORE
    AccurateRip: Accurate (confidence 2) [Pass 1]
    CRC32: 7D57B15E AccurateRip CRC: 44F9753E (CRCv2) [DiscID: 020-0037fb87-03282a47-3b126314-19]
    AccurateRip Verified Confidence 2 [CRCv2 44f9753e]
    AccurateRip Verified Confidence 15 [CRCv1 f5cd9518]

    Information ripping to [Multi Encoder], 'Track 20' to 'H:\Audio\MP3\Various Artists\Pop-Rock\Sampled, Disc 2\Stratus - Sampled, Disc 2 - Billy Cobham - 2000.IGNORE'
    Track 20: Ripped LBA 322535 to 353065 (6:47) in 0:19. Filename: H:\Audio\MP3\Various Artists\Pop-Rock\Sampled, Disc 2\Stratus - Sampled, Disc 2 - Billy Cobham - 2000.IGNORE
    AccurateRip: Accurate (confidence 2) [Pass 1]
    CRC32: 5FD2310C AccurateRip CRC: 8C0D9889 (CRCv2) [DiscID: 020-0037fb87-03282a47-3b126314-20]
    AccurateRip Verified Confidence 2 [CRCv2 8c0d9889]
    AccurateRip Verified Confidence 14 [CRCv1 d3c46384]

  2. #2
    Administrator
    Join Date
    Apr 2002
    Posts
    40,772

    Re: Single encoder writes files. Multi-encoder does not.

    Using Avast?

  3. #3

    Join Date
    Jul 2011
    Location
    Osaka
    Posts
    3

    Re: Single encoder writes files. Multi-encoder does not.

    Hi. Avast? No. Not to my knowledge. I have a new HP Envy 14 beats system, but didn't find any files related to Avast. Not sure what it is actually. I'm running XP Ultimate 64.

  4. #4
    Administrator
    Join Date
    Apr 2002
    Posts
    40,772

    Re: Single encoder writes files. Multi-encoder does not.

    It is security software.

    Open dBpoweramp configuration >> Music Converter >> enable the 'Debug Option'

    Then do a conversion and post the log(s) after a conversion please.

  5. #5

    Join Date
    Jul 2011
    Location
    Osaka
    Posts
    3

    Re: Single encoder writes files. Multi-encoder does not.

    Hi Spoon. Sorry. My problem was that the output files files were being written to my profile path on the system drive, and not my external HDD. :blush: It's a path issue I've been having in my dynamic folder all along. Thanks for your fast replies :smile2:

Posting Permissions

  • You may not post new threads
  • You may not post replies
  • You may not post attachments
  • You may not edit your posts
  •