title
Products            Buy            Support Forum            Professional            About            Codec Central
 
Results 1 to 10 of 10

Thread: Log Bug

  1. #1
    Barough's Avatar
    Join Date
    Apr 2005
    Posts
    47

    Exclamation Log Bug

    This was brought up during the R14.1 Beta tests, but it seems like it slipped through to the Stable release........

    Always when an album Accurate Ripped so does double verified rows show up in the log file.

    AR Ripped
    Code:
      AccurateRip: Accurate (confidence 15)     [Pass 1]
      CRC32: 99BB817E     AccurateRip CRC: 52ED7875 (CRCv2)     [DiscID: 011-0014b948-00b3c7a1-990ba20b-1]
      AccurateRip Verified Confidence 15 [CRCv2 52ed7875]
      AccurateRip Verified Confidence 78 [CRCv1 eda4b5a9]
      AccurateRip Verified Confidence 15 [CRCv2 52ed7875]
      AccurateRip Verified Confidence 78 [CRCv1 eda4b5a9]
    Non-AR Ripped
    Code:
    Secure  [Pass 1 & 2, Ultra 1 to 2]
      CRC32: C3D51FDA     AccurateRip CRC: F5A57E6E (CRCv2)     [DiscID: 015-0021affe-018462e5-c90f4b0f-1]

  2. #2
    Administrator
    Join Date
    Apr 2002
    Posts
    40,350

    Re: Log Bug

    Is it for all discs or certain ones?

  3. #3
    Barough's Avatar
    Join Date
    Apr 2005
    Posts
    47

    Re: Log Bug

    All discs that are AR : Accurate ripped.

    I've ripped about 15 CDs with R14.1 (Stable) and all that have been AR : Accurate ripped have had double verified rows in the log file. It was the same thing with the Betas.
    Last edited by Barough; 05-05-2011 at 12:10 PM.

  4. #4
    dBpoweramp Guru
    Join Date
    Jan 2011
    Posts
    937

    Re: Log Bug

    The duplication does not show in the secure information page, just the written log?

  5. #5
    Barough's Avatar
    Join Date
    Apr 2005
    Posts
    47

    Re: Log Bug

    Only in the log.

  6. #6
    Administrator
    Join Date
    Apr 2002
    Posts
    40,350

    Re: Log Bug

    It is odd, as I cannot reproduce this. Please post the full log (rip just track 1 of a disc).

  7. #7
    Barough's Avatar
    Join Date
    Apr 2005
    Posts
    47

    Re: Log Bug

    Sry 4 the late reply, but i've been a way.....

    Code:
    dBpoweramp Release 14.1 Digital Audio Extraction Log from den 10 maj 2011 06:54
    
    Drive & Settings
    ----------------
    
    Ripping with drive 'W:   [PLEXTOR  - DVDR   PX-880SA ]',  Drive offset: 6,  Overread Lead-in/out: No
    AccurateRip: Active,  Using C2: No,  Cache: 2048 KB,  FUA Cache Invalidate: No
    Pass 1 Drive Speed: Max,  Pass 2 Drive Speed: Max
    Ultra::  Vary Drive Speed: Yes,  Min Passes: 2,  Max Passes: 4,  Finish After Clean Passes: 2
    Bad Sector Re-rip::  Drive Speed: Max,  Maximum Re-reads: 34
    
    Encoder: FLAC -compression-level-8 -verify
    DSP Effects / Actions: -dspeffect1="Playlist Writer=-type={qt}m3u{qt} -titles={qt}[title]{qt} -writepath={qt}C:\Users\Admin\Music\{qt} -filename={qt}[artist] - [album]{qt}"
    
    Extraction Log
    --------------
    
    Track 1:  Ripped LBA 0 to 22847 (5:04) in 0:19. Filename: F:\dMC Rips\01 - Michael Schenker - Rude Awakening.flac
      AccurateRip: Accurate (confidence 3)     [Pass 1]
      CRC32: D4203EFF     AccurateRip CRC: 5E4B7F66 (CRCv2)     [DiscID: 012-001982b3-00eee4b8-a20d880c-1]
      AccurateRip Verified Confidence 3 [CRCv2 5e4b7f66]
      AccurateRip Verified Confidence 28 [CRCv1 f7099401]
    
    --------------
    
    1 Tracks Ripped Accurately
    Code:
    dBpoweramp Release 14.1 Digital Audio Extraction Log from den 10 maj 2011 06:57
    
    Drive & Settings
    ----------------
    
    Ripping with drive 'W:   [PLEXTOR  - DVDR   PX-880SA ]',  Drive offset: 6,  Overread Lead-in/out: No
    AccurateRip: Active,  Using C2: No,  Cache: 2048 KB,  FUA Cache Invalidate: No
    Pass 1 Drive Speed: Max,  Pass 2 Drive Speed: Max
    Ultra::  Vary Drive Speed: Yes,  Min Passes: 2,  Max Passes: 4,  Finish After Clean Passes: 2
    Bad Sector Re-rip::  Drive Speed: Max,  Maximum Re-reads: 34
    
    Encoder: FLAC -compression-level-8 -verify
    DSP Effects / Actions: -dspeffect1="Playlist Writer=-type={qt}m3u{qt} -titles={qt}[title]{qt} -writepath={qt}C:\Users\Admin\Music\{qt} -filename={qt}[artist] - [album]{qt}"
    
    Extraction Log
    --------------
    
    Track 1:  Ripped LBA 0 to 28215 (6:16) in 2:57. Filename: F:\dMC Rips\01 - McAuley-Schenker Group - Save Yourself.flac
      Secure  [Pass 1 & 2, Ultra 1 to 2]
      CRC32: 39136350     AccurateRip CRC: 09BB7F63 (CRCv2)     [DiscID: 014-00228c30-016bcabf-d40f440e-1]
    
    --------------
    
    1 Tracks Ripped Securely

    Code:
    dBpoweramp Release 14.1 Digital Audio Extraction Log from den 10 maj 2011 07:02
    
    Drive & Settings
    ----------------
    
    Ripping with drive 'W:   [PLEXTOR  - DVDR   PX-880SA ]',  Drive offset: 6,  Overread Lead-in/out: No
    AccurateRip: Active,  Using C2: No,  Cache: 2048 KB,  FUA Cache Invalidate: No
    Pass 1 Drive Speed: Max,  Pass 2 Drive Speed: Max
    Ultra::  Vary Drive Speed: Yes,  Min Passes: 2,  Max Passes: 4,  Finish After Clean Passes: 2
    Bad Sector Re-rip::  Drive Speed: Max,  Maximum Re-reads: 34
    
    Encoder: FLAC -compression-level-8 -verify
    DSP Effects / Actions: -dspeffect1="Playlist Writer=-type={qt}m3u{qt} -titles={qt}[title]{qt} -writepath={qt}C:\Users\Admin\Music\{qt} -filename={qt}[artist] - [album]{qt}"
    
    Extraction Log
    --------------
    
    Track 1:  Ripped LBA 0 to 14417 (3:12) in 0:12. Filename: F:\dMC Rips\01 - P!nk - Get the Party Started.flac
      AccurateRip: Accurate (confidence 10)     [Pass 1]
      CRC32: 5B999E34     AccurateRip CRC: 819A1AC4 (CRCv2)     [DiscID: 019-0030865b-02a91bde-38107513-1]
      AccurateRip Verified Confidence 10 [CRCv2 819a1ac4]
      AccurateRip Verified Confidence 26 [CRCv1 a055000a]
      AccurateRip Verified Confidence 2 [CRCv2 6ade828c], Using Pressing Offset +12
    
    --------------
    
    1 Tracks Ripped Accurately

  8. #8
    Administrator
    Join Date
    Apr 2002
    Posts
    40,350

    Re: Log Bug

    The odd thing is, none are duplicated in the last set of logs you have posted.

  9. #9
    Barough's Avatar
    Join Date
    Apr 2005
    Posts
    47

    Re: Log Bug

    Didn't notice that.... weird, very weird..... b4 so did all Accurate Ripped albums show up with double verified rows in the log file.

    Kinda feels like something have changed on the db side.
    Last edited by Barough; 05-11-2011 at 10:48 AM.

  10. #10
    Barough's Avatar
    Join Date
    Apr 2005
    Posts
    47

    Re: Log Bug

    Will continue looking into this issue of mine.

Posting Permissions

  • You may not post new threads
  • You may not post replies
  • You may not post attachments
  • You may not edit your posts
  •