title
Products            Buy            Support Forum            Professional            About            Codec Central
 
Results 1 to 5 of 5

Thread: Inaccurate 200 error

  1. #1

    Join Date
    Apr 2011
    Location
    Miami FL
    Posts
    6

    Inaccurate 200 error

    I am getting Inaccurate 200 errors on two tracks of a cd I am ripping. I am new to dbpoweramp and the is the second cd I have ripped. I want to rerip my cd collection to flac so I want to make sure I get it right fom the beginning.

    Thanks

    Log:

    Information ripping to FLAC, 'Track 2' to '\\VMARINA\Music\Alan Parsons\Tales of Mystery and Imagination; Edgar Allan Poe\02 Alan Parsons Project, The - The Raven.flac'
    Track 2: Ripped LBA 19080 to 36918 (3:57) in 1:53. Filename: \\VMARINA\Music\Alan Parsons\Tales of Mystery and Imagination; Edgar Allan Poe\02 Alan Parsons Project, The - The Raven.flac
    AccurateRip: Inaccurate (confidence 200) Secure (Warning) [Pass 1 & 2, Re-Rip 18 Frames]
    CRC32: C5021432 AccurateRip CRC: FCE4CBA6 (NEW) [DiscID: 011-0012dfbd-00a13420-a80a010b-2]

    Information ripping to FLAC, 'Track 3' to '\\VMARINA\Music\Alan Parsons\Tales of Mystery and Imagination; Edgar Allan Poe\03 Alan Parsons Project, The - The Tell-Tale Heart.flac'
    Track 3: Ripped LBA 36918 to 57823 (4:38) in 0:46. Filename: \\VMARINA\Music\Alan Parsons\Tales of Mystery and Imagination; Edgar Allan Poe\03 Alan Parsons Project, The - The Tell-Tale Heart.flac
    AccurateRip: Inaccurate (confidence 200) Secure (Warning) [Pass 1 & 2, Re-Rip 4 Frames]
    CRC32: AB2D8ADD AccurateRip CRC: EDADE02F (NEW) [DiscID: 011-0012dfbd-00a13420-a80a010b-3]

  2. #2
    Administrator
    Join Date
    Apr 2002
    Posts
    40,648

    Re: Inaccurate 200 error

    I would have to see the AR result for the other tracks as well.

  3. #3

    Join Date
    Apr 2011
    Location
    Miami FL
    Posts
    6

    Re: Inaccurate 200 error

    Where is that log? What I posted is the only information from the log screen.

    Thanks

  4. #4

    Join Date
    Apr 2011
    Location
    Miami FL
    Posts
    6

    Re: Inaccurate 200 error

    Rerun the tip and got the complete logs.

    Information Log:

    Information ripping to FLAC, 'Track 1' to '\\VMARINA\Music\Alan Parsons\Tales of Mystery and Imagination; Edgar Allan Poe\01 Alan Parsons Project, The - A Dream Within a Dream.flac'
    Track 1: Ripped LBA 33 to 19080 (4:13) in 0:14. Filename: \\VMARINA\Music\Alan Parsons\Tales of Mystery and Imagination; Edgar Allan Poe\01 Alan Parsons Project, The - A Dream Within a Dream.flac
    AccurateRip: Accurate (confidence 30) [Pass 1]
    CRC32: 1FACCE4E AccurateRip CRC: 5A6476F2 (NEW) [DiscID: 011-0012dfbd-00a13420-a80a010b-1]

    Information ripping to FLAC, 'Track 2' to '\\VMARINA\Music\Alan Parsons\Tales of Mystery and Imagination; Edgar Allan Poe\02 Alan Parsons Project, The - The Raven.flac'
    Track 2: Ripped LBA 19080 to 36918 (3:57) in 2:02:10. Filename: \\VMARINA\Music\Alan Parsons\Tales of Mystery and Imagination; Edgar Allan Poe\02 Alan Parsons Project, The - The Raven.flac
    AccurateRip: Inaccurate (confidence 200) Insecure [Pass 1 & 2, Re-Rip 306 Frames]
    CRC32: B5E30171 AccurateRip CRC: 897A2F0A (NEW) [DiscID: 011-0012dfbd-00a13420-a80a010b-2]

    Information ripping to FLAC, 'Track 3' to '\\VMARINA\Music\Alan Parsons\Tales of Mystery and Imagination; Edgar Allan Poe\03 Alan Parsons Project, The - The Tell-Tale Heart.flac'
    Track 3: Ripped LBA 36918 to 57823 (4:38) in 13:45. Filename: \\VMARINA\Music\Alan Parsons\Tales of Mystery and Imagination; Edgar Allan Poe\03 Alan Parsons Project, The - The Tell-Tale Heart.flac
    AccurateRip: Inaccurate (confidence 200) Insecure [Pass 1 & 2, Re-Rip 31 Frames]
    CRC32: DA034B0C AccurateRip CRC: 9E655F8F (NEW) [DiscID: 011-0012dfbd-00a13420-a80a010b-3]

    Information ripping to FLAC, 'Track 5' to '\\VMARINA\Music\Alan Parsons\Tales of Mystery and Imagination; Edgar Allan Poe\05 Alan Parsons Project, The - (The System Of) Doctor Tarr and Professor Fether.flac'
    Track 5: Ripped LBA 78335 to 97900 (4:20) in 0:09. Filename: \\VMARINA\Music\Alan Parsons\Tales of Mystery and Imagination; Edgar Allan Poe\05 Alan Parsons Project, The - (The System Of) Doctor Tarr and Professor Fether.flac
    AccurateRip: Accurate (confidence 30) [Pass 1]
    CRC32: 45C92B81 AccurateRip CRC: 25DCE980 (NEW) [DiscID: 011-0012dfbd-00a13420-a80a010b-5]

    Information ripping to FLAC, 'Track 4' to '\\VMARINA\Music\Alan Parsons\Tales of Mystery and Imagination; Edgar Allan Poe\04 Alan Parsons Project, The - The Cask of Amontillado.flac'
    Track 4: Ripped LBA 57823 to 78335 (4:33) in 0:11. Filename: \\VMARINA\Music\Alan Parsons\Tales of Mystery and Imagination; Edgar Allan Poe\04 Alan Parsons Project, The - The Cask of Amontillado.flac
    AccurateRip: Accurate (confidence 30) [Pass 1]
    CRC32: 7EAA749F AccurateRip CRC: 17B7F773 (NEW) [DiscID: 011-0012dfbd-00a13420-a80a010b-4]

    Information ripping to FLAC, 'Track 8' to '\\VMARINA\Music\Alan Parsons\Tales of Mystery and Imagination; Edgar Allan Poe\08 Alan Parsons Project, The - The Fall of the House of Usher; Intermezzo.flac'
    Track 8: Ripped LBA 141560 to 146090 (1:00) in 0:01. Filename: \\VMARINA\Music\Alan Parsons\Tales of Mystery and Imagination; Edgar Allan Poe\08 Alan Parsons Project, The - The Fall of the House of Usher; Intermezzo.flac
    AccurateRip: Accurate (confidence 30) [Pass 1]
    CRC32: F2C99DC6 AccurateRip CRC: DEF719BF (NEW) [DiscID: 011-0012dfbd-00a13420-a80a010b-8]

    Information ripping to FLAC, 'Track 7' to '\\VMARINA\Music\Alan Parsons\Tales of Mystery and Imagination; Edgar Allan Poe\07 Alan Parsons Project, The - The Fall of the House of Usher; Arrival.flac'
    Track 7: Ripped LBA 129588 to 141560 (2:39) in 0:04. Filename: \\VMARINA\Music\Alan Parsons\Tales of Mystery and Imagination; Edgar Allan Poe\07 Alan Parsons Project, The - The Fall of the House of Usher; Arrival.flac
    AccurateRip: Accurate (confidence 30) [Pass 1]
    CRC32: 15A51868 AccurateRip CRC: F582FBD8 (NEW) [DiscID: 011-0012dfbd-00a13420-a80a010b-7]

    Information ripping to FLAC, 'Track 10' to '\\VMARINA\Music\Alan Parsons\Tales of Mystery and Imagination; Edgar Allan Poe\10 Alan Parsons Project, The - The Fall of the House of Usher; Fall.flac'
    Track 10: Ripped LBA 166803 to 170650 (0:51) in 0:01. Filename: \\VMARINA\Music\Alan Parsons\Tales of Mystery and Imagination; Edgar Allan Poe\10 Alan Parsons Project, The - The Fall of the House of Usher; Fall.flac
    AccurateRip: Accurate (confidence 30) [Pass 1]
    CRC32: 81AEB555 AccurateRip CRC: 57F474BD (NEW) [DiscID: 011-0012dfbd-00a13420-a80a010b-10]

    Information ripping to FLAC, 'Track 6' to '\\VMARINA\Music\Alan Parsons\Tales of Mystery and Imagination; Edgar Allan Poe\06 Alan Parsons Project, The - The Fall of the House of Usher; Prelude.flac'
    Track 6: Ripped LBA 97900 to 129588 (7:02) in 0:13. Filename: \\VMARINA\Music\Alan Parsons\Tales of Mystery and Imagination; Edgar Allan Poe\06 Alan Parsons Project, The - The Fall of the House of Usher; Prelude.flac
    AccurateRip: Accurate (confidence 29) [Pass 1]
    CRC32: 2340ED62 AccurateRip CRC: A40344A2 (NEW) [DiscID: 011-0012dfbd-00a13420-a80a010b-6]

    Information ripping to FLAC, 'Track 9' to '\\VMARINA\Music\Alan Parsons\Tales of Mystery and Imagination; Edgar Allan Poe\09 Alan Parsons Project, The - The Fall of the House of Usher; Pavane.flac'
    Track 9: Ripped LBA 146090 to 166803 (4:36) in 0:08. Filename: \\VMARINA\Music\Alan Parsons\Tales of Mystery and Imagination; Edgar Allan Poe\09 Alan Parsons Project, The - The Fall of the House of Usher; Pavane.flac
    AccurateRip: Accurate (confidence 30) [Pass 1]
    CRC32: CFE02845 AccurateRip CRC: 85AD1F3E (NEW) [DiscID: 011-0012dfbd-00a13420-a80a010b-9]

    Information ripping to FLAC, 'Track 11' to '\\VMARINA\Music\Alan Parsons\Tales of Mystery and Imagination; Edgar Allan Poe\11 Alan Parsons Project, The - To One in Paradise.flac'
    Track 11: Ripped LBA 170650 to 192145 (4:46) in 0:13. Filename: \\VMARINA\Music\Alan Parsons\Tales of Mystery and Imagination; Edgar Allan Poe\11 Alan Parsons Project, The - To One in Paradise.flac
    AccurateRip: Accurate (confidence 30) [Pass 1]
    CRC32: 8DDFD9C4 AccurateRip CRC: 671225D4 (NEW) [DiscID: 011-0012dfbd-00a13420-a80a010b-11]


    Error Log:

    Error ripping to FLAC, 'Track 5' to '\\VMARINA\Music\Alan Parsons\Tales of Mystery and Imagination; Edgar Allan Poe\05 Alan Parsons Project, The - (The System Of) Doctor Tarr and Professor Fether.flac'
    Error opening file, check no other program has it open. [clDecoder::WriteIDTags]

  5. #5
    Administrator
    Join Date
    Apr 2002
    Posts
    40,648

    Re: Inaccurate 200 error

    Inaccurate and Insecure both state that the track 2 and 3 have errors in the rip which your CD drive cannot recover from.

Posting Permissions

  • You may not post new threads
  • You may not post replies
  • You may not post attachments
  • You may not edit your posts
  •