title
Products            Purchase            Codec Central            Forum & Support            Professional            About
  
Results 1 to 3 of 3

Thread: EAC always "Cannot be verified as accurate" why ? (EAC)

  1. #1

    Join Date
    Apr 2010
    Posts
    2

    EAC always "Cannot be verified as accurate" why ? (EAC)

    :cry:
    My EAC is ver 0.99 b5.

    I've been using 3 computers and more than 10 CD to Rip.
    But the EAC log always was say "Cannot be verified as accurate".
    In that 3 computers, use cd-rom , dvd-rom, dvd-combo.
    3 system set a correct read offset. And 3 wav are the same (CRC, size)

    I think this one of a CD may mamy people have this:
    Erich Kunzel & Cincinnati Pops Orchestra / Ein Straussfest (1985)



    //*****************************************
    One of Log (use dvd-rom):


    Exact Audio Copy V0.99 prebeta 5 from 4. May 2009

    EAC extraction logfile from 12. April 2010, 19:01

    Erich Kunzel & Cincinnati Pops Orchestra / Ein Straussfest

    Used drive : HL-DT-STDVD-ROM GDR8164B Adapter: 1 ID: 0

    Read mode : Secure
    Utilize accurate stream : Yes
    Defeat audio cache : Yes
    Make use of C2 pointers : No

    Read offset correction : 102
    Overread into Lead-In and Lead-Out : No
    Fill up missing offset samples with silence : Yes
    Delete leading and trailing silent blocks : No
    Null samples used in CRC calculations : Yes
    Used interface : Native Win32 interface for Win NT & 2000
    Gap handling : Appended to previous track

    Used output format : Internal WAV Routines
    Sample format : 44.100 Hz; 16 Bit; Stereo


    TOC of the extracted CD

    Track | Start | Length | Start sector | End sector
    ---------------------------------------------------------
    1 | 0:00.00 | 2:23.22 | 0 | 10746
    2 | 2:23.22 | 3:39.28 | 10747 | 27199
    3 | 6:02.50 | 2:34.12 | 27200 | 38761
    4 | 8:36.62 | 2:47.20 | 38762 | 51306
    5 | 11:24.07 | 8:27.55 | 51307 | 89386
    6 | 19:51.62 | 3:08.20 | 89387 | 103506
    7 | 23:00.07 | 2:39.63 | 103507 | 115494
    8 | 25:39.70 | 2:33.57 | 115495 | 127026
    9 | 28:13.52 | 11:02.57 | 127027 | 176733
    10 | 39:16.34 | 2:33.56 | 176734 | 188264
    11 | 41:50.15 | 2:34.72 | 188265 | 199886
    12 | 44:25.12 | 3:41.40 | 199887 | 216501


    Track 1

    Filename E:\CD\01 Erich Kunzel & Cincinnati Pops Orchestra - [Johann Strauss] Explosions Polka, Op.43.wav

    Pre-gap length 0:00:02.00

    Peak level 100.0 %
    Track quality 100.0 %
    Copy CRC CE792639
    Cannot be verified as accurate (confidence 3) [64221FFE], AccurateRip returned [1B23C7DC]
    Copy OK

    Track 2

    Filename E:\CD\02 Erich Kunzel & Cincinnati Pops Orchestra - [Johann Strauss] Im Krapfenwald'l Polka (In The Little Jelly Doughnut Woods Polka), Op.336.wav

    Pre-gap length 0:00:01.32

    Peak level 70.5 %
    Track quality 100.0 %
    Copy CRC 5A3E7570
    Cannot be verified as accurate (confidence 3) [F1BF030E], AccurateRip returned [61876BAC]
    Copy OK

    Track 3

    Filename E:\CD\03 Erich Kunzel & Cincinnati Pops Orchestra - [Johann Strauss] Champagne Polka, Op.211.wav

    Pre-gap length 0:00:02.60

    Peak level 99.9 %
    Track quality 100.0 %
    Copy CRC 150F149D
    Cannot be verified as accurate (confidence 3) [FD696336], AccurateRip returned [0CD8EA00]
    Copy OK

    Track 4

    Filename E:\CD\04 Erich Kunzel & Cincinnati Pops Orchestra - [Johann Strauss] Banditen Galopp, Op.378.wav

    Peak level 99.8 %
    Track quality 100.0 %
    Copy CRC B97A9C80
    Cannot be verified as accurate (confidence 3) [52445384], AccurateRip returned [A5F1AD46]
    Copy OK

    Track 5

    Filename E:\CD\05 Erich Kunzel & Cincinnati Pops Orchestra - [Johann Strauss] On The Beautiful Blue Danube Waltz, Op.314.wav

    Pre-gap length 0:00:03.70

    Peak level 85.5 %
    Track quality 99.9 %
    Copy CRC A0914533
    Cannot be verified as accurate (confidence 3) [1EE63D6E], AccurateRip returned [4A99A512]
    Copy OK

    Track 6

    Filename E:\CD\06 Erich Kunzel & Cincinnati Pops Orchestra - [Johann Strauss, Sr.] Radetsky March, Op.228.wav

    Pre-gap length 0:00:03.72

    Peak level 56.6 %
    Track quality 99.9 %
    Copy CRC 032C5E2F
    Cannot be verified as accurate (confidence 3) [4666C554], AccurateRip returned [F70C1D08]
    Copy OK

    Track 7

    Filename E:\CD\07 Erich Kunzel & Cincinnati Pops Orchestra - [Josef Strauss] Feuerfest Polka (Fire Festival Polka), Op.269.wav

    Pre-gap length 0:00:03.05

    Peak level 86.8 %
    Track quality 100.0 %
    Copy CRC E05B0707
    Cannot be verified as accurate (confidence 3) [9E4B959E], AccurateRip returned [C7641ADA]
    Copy OK

    Track 8

    Filename E:\CD\08 Erich Kunzel & Cincinnati Pops Orchestra - [Johann Strauss] Auf der Jagd Polka (At The Hunt Polka), Op.373.wav

    Pre-gap length 0:00:03.25

    Peak level 95.1 %
    Track quality 99.9 %
    Copy CRC B8A94DDF
    Cannot be verified as accurate (confidence 3) [93F6607E], AccurateRip returned [57BFFAF6]
    Copy OK

    Track 9

    Filename E:\CD\09 Erich Kunzel & Cincinnati Pops Orchestra - [Johann Strauss] Tales from the Vienna Woods Waltz, Op.325.wav

    Pre-gap length 0:00:01.73

    Peak level 77.8 %
    Track quality 100.0 %
    Copy CRC F3AC477D
    Cannot be verified as accurate (confidence 3) [B6EF8A2A], AccurateRip returned [FD5F31CC]
    Copy OK

    Track 10

    Filename E:\CD\10 Erich Kunzel & Cincinnati Pops Orchestra - [Eduard Strauss] Bahn Frei Polka (Clear Track Polka), Op.45.wav

    Pre-gap length 0:00:02.17

    Peak level 95.3 %
    Track quality 99.9 %
    Copy CRC 6C000D19
    Cannot be verified as accurate (confidence 3) [08E625B8], AccurateRip returned [E7B13396]
    Copy OK

    Track 11

    Filename E:\CD\11 Erich Kunzel & Cincinnati Pops Orchestra - [Johann & Josef Strauss] Pizzicato Polka.wav

    Pre-gap length 0:00:02.56

    Peak level 21.2 %
    Track quality 100.0 %
    Copy CRC 83546622
    Cannot be verified as accurate (confidence 3) [ABC2C114], AccurateRip returned [30C65B6E]
    Copy OK

    Track 12

    Filename E:\CD\12 Erich Kunzel & Cincinnati Pops Orchestra - [Johann Strauss] Unter Donner und Blitz Polka (Thunder and Lightning Polka), Op.324.wav

    Pre-gap length 0:00:05.20

    Peak level 97.8 %
    Track quality 100.0 %
    Copy CRC 8F546B0B
    Cannot be verified as accurate (confidence 3) [741F0A3D], AccurateRip returned [7108413F]
    Copy OK


    No tracks could be verified as accurate
    You may have a different pressing from the one(s) in the database

    No errors occurred

    End of status report


    //*****************************************

    Do you see there ?
    Track | Start | Length | Start sector | End sector
    ---------------------------------------------------------
    1 | 0:00.00 | 2:23.22 | 0 | 10746
    I found the CD in freedb. That have a file say the "Start sector" is 150.
    No matter how I change any EAC setting, the start sector always 0.
    Is that because of this?

    Every track was "Cannot be verified as accurate " why ?

    Thanks.

  2. #2

    Join Date
    Apr 2010
    Posts
    2

    Question Re: EAC always "Cannot be verified as accurate" why ? (EAC)

    When used dBpoweramp the wav and the same with EAC (size, crc).

  3. #3
    Da Man
    Join Date
    Apr 2002
    Posts
    37,103

    Re: EAC always "Cannot be verified as accurate" why ? (EAC)

    You have a different pressing, you can try dbpoweramp r14 (from the beta section) which would verify using the other pressing.

Tags for this Thread

Posting Permissions

  • You may not post new threads
  • You may not post replies
  • You may not post attachments
  • You may not edit your posts
  •  

Copyright 2018 Illustrate. All Rights Reserved.