title
Products            Buy            Support Forum            Professional            About            Codec Central
 
Results 1 to 2 of 2

Thread: Need help with CUETools

  1. #1

    Join Date
    Apr 2010
    Posts
    4

    Need help with CUETools

    Hello. I am a new user of DBPoweramp and just discoverd CUETools. The reason why I am using this program is to verify that files ripped to FLAC before using DBPoweramp are Accurately Ripped. If I understand correctly, this is possible with CUETools.

    I downloaded the program and verified a cd already ripped to FLAC. Here are the settings I used to verify:




    Advanced Settings:



    My first set of questions is about the settings I selected. There are many check boxes in the Advanced Settings AccurateRip tab that I do not understand:

    1) Under Verify If I select Write AccurateRip tags what does this do?
    2) Should I check the Encode if verified box? What does this do?
    3) What does fix offset do?

    As you can tell, I am a complete newbie and confused by all of these options:(.
    My end goal is to have a 'Perfect' FLAC file. Any recommended, tried & true, settings would be greatly appreciated.

    My second question is about interpreting the CUETools log file that was generated using the above settings. Here it is. My question is pretty simple, What does all this garble mean? Sorry for being obtuse, but I do not get it:confused:.

    I would appreciate any and all help from forum members who are familiar with how CUETools works. Thanks in advance.

    David (CUETools log below)


    [CUETools log; Date: 03/07/2010 18:26:49; Version: 2.0.9]
    [CTDB TOCID: 95rD6_gaJlQ702Uih.7d4KcJWQI-] disk not present in database.
    [AccurateRip ID: 000f830c-0087f90e-9e095e0b] found.
    Track [ CRC ] Status
    01 [ff3f3996] (10/83) Accurately ripped
    02 [e4793440] (10/84) Accurately ripped
    03 [b8efbe8d] (10/83) Accurately ripped
    04 [c01b811d] (10/83) Accurately ripped
    05 [43181ce7] (10/86) Accurately ripped
    06 [de75205e] (10/82) Accurately ripped
    07 [9e56391d] (10/83) Accurately ripped
    08 [7febe9c3] (10/81) Accurately ripped
    09 [18f874a2] (10/82) Accurately ripped
    10 [6579da7a] (10/81) Accurately ripped
    11 [3d350037] (09/78) Accurately ripped
    Offsetted by -139:
    01 [225989a9] (02/83) Accurately ripped
    02 [834c65a5] (04/84) Accurately ripped
    03 [b1bd302b] (03/83) Accurately ripped
    04 [63ef226e] (03/83) Accurately ripped
    05 [3d01e358] (04/86) Accurately ripped
    06 [5df4efbd] (03/82) Accurately ripped
    07 [f54a9f42] (03/83) Accurately ripped
    08 [8f9ed44f] (03/81) Accurately ripped
    09 [36c516f8] (03/82) Accurately ripped
    10 [5c43ae7c] (03/81) Accurately ripped
    11 [1b372a50] (03/78) Accurately ripped
    Offsetted by -3:
    01 [659c0e34] (04/83) Accurately ripped
    02 [4d0f8f1b] (04/84) Accurately ripped
    03 [8aced1ad] (04/83) Accurately ripped
    04 [0f277056] (04/83) Accurately ripped
    05 [e508e640] (04/86) Accurately ripped
    06 [b34392f3] (04/82) Accurately ripped
    07 [2959386c] (04/83) Accurately ripped
    08 [85c9192f] (04/81) Accurately ripped
    09 [9a88d7e8] (04/82) Accurately ripped
    10 [7d38394c] (04/81) Accurately ripped
    11 [2806a41a] (04/78) Accurately ripped
    Offsetted by 32:
    01 [8063f331] (03/83) Accurately ripped
    02 [dee9cb4b] (03/84) Accurately ripped
    03 [f9edf282] (03/83) Accurately ripped
    04 [ca46debd] (03/83) Accurately ripped
    05 [2e650e87] (03/86) Accurately ripped
    06 [1b280735] (03/82) Accurately ripped
    07 [d3f73cfa] (03/83) Accurately ripped
    08 [415f4543] (03/81) Accurately ripped
    09 [5d9efc62] (03/82) Accurately ripped
    10 [12e091ba] (03/81) Accurately ripped
    11 [07addc46] (03/78) Accurately ripped
    Offsetted by 106:
    01 [de390f34] (03/83) Accurately ripped
    02 [fa7ece3c] (03/84) Accurately ripped
    03 [bc8518f7] (03/83) Accurately ripped
    04 [81cb273f] (03/83) Accurately ripped
    05 [3e86fd49] (03/86) Accurately ripped
    06 [8dfb43e1] (03/82) Accurately ripped
    07 [6ea03332] (03/83) Accurately ripped
    08 [b0ba08db] (03/81) Accurately ripped
    09 [8c60164e] (03/82) Accurately ripped
    10 [73de197e] (03/81) Accurately ripped
    11 [faa3d39b] (03/78) Accurately ripped
    Offsetted by 210:
    01 [6c37ed60] (05/83) Accurately ripped
    02 [134e1fc0] (05/84) Accurately ripped
    03 [4cef6c4b] (05/83) Accurately ripped
    04 [22d81787] (05/83) Accurately ripped
    05 [fb410e91] (05/86) Accurately ripped
    06 [954a1ac6] (05/82) Accurately ripped
    07 [636725a1] (05/83) Accurately ripped
    08 [e570f23b] (05/81) Accurately ripped
    09 [ab7d4f7e] (05/82) Accurately ripped
    10 [e76bed0e] (05/81) Accurately ripped
    11 [16692efd] (05/78) Accurately ripped
    Offsetted by 322:
    01 [2e086f82] (06/83) Accurately ripped
    02 [3d8b21c7] (06/84) Accurately ripped
    03 [b9a06a54] (06/83) Accurately ripped
    04 [466fdf37] (06/83) Accurately ripped
    05 [b2ce5c41] (06/86) Accurately ripped
    06 [166751bf] (06/82) Accurately ripped
    07 [77696594] (06/83) Accurately ripped
    08 [0a84b27b] (06/81) Accurately ripped
    09 [1bc42a9e] (06/82) Accurately ripped
    10 [c6536e6e] (05/81) Accurately ripped
    11 [da306141] (05/78) Accurately ripped
    Offsetted by 404:
    01 [885064e3] (03/83) Accurately ripped
    02 [5e841d80] (03/84) Accurately ripped
    03 [591f1a99] (03/83) Accurately ripped
    04 [807eff21] (03/83) Accurately ripped
    05 [bdc3876b] (03/86) Accurately ripped
    06 [14576ada] (03/82) Accurately ripped
    07 [ff07d415] (03/83) Accurately ripped
    08 [6a3c4cf3] (03/81) Accurately ripped
    09 [9baee67a] (03/82) Accurately ripped
    10 [92aaa402] (03/81) Accurately ripped
    11 [b33833d4] (03/78) Accurately ripped
    Offsetted by 583:
    01 [4fcdd808] (47/83) Accurately ripped
    02 [372608ff] (46/84) Accurately ripped
    03 [8a83be4f] (46/83) Accurately ripped
    04 [696192d8] (46/83) Accurately ripped
    05 [a9f9ef02] (48/86) Accurately ripped
    06 [8dc076c7] (45/82) Accurately ripped
    07 [10757bc0] (46/83) Accurately ripped
    08 [0c5994c7] (44/81) Accurately ripped
    09 [13b26dd4] (45/82) Accurately ripped
    10 [b4a13510] (45/81) Accurately ripped
    11 [c2ecdaf4] (43/78) Accurately ripped

    Track Peak [ CRC32 ] [W/O NULL]
    -- 97,7 [17F26069] [E1009768]
    01 97,7 [892C8A27] [5691D5C3]
    02 97,7 [F0EFA722] [5D1F4396]
    03 97,7 [28B74073] [0EF429AF]
    04 97,7 [4EA94D9A] [F4E2F878]
    05 97,7 [F35D9F86] [8826FF3A]
    06 70,3 [E2ED01A2] [0507905C]
    07 97,7 [82FFCD3C] [4C2F1FE9]
    08 97,7 [3FC39BF3] [E72698BA]
    09 97,7 [DCB3F1A2] [2358F3F3]
    10 97,7 [351C6CEF] [71CE4EA8]
    11 97,7 [AACB5D37] [2BC520A4]
    Last edited by dalza; 07-03-2010 at 01:20 PM. Reason: problem embeding images

  2. #2
    Administrator
    Join Date
    Apr 2002
    Posts
    39,237

    Re: Need help with CUETools

    You would be best asking here:

    http://www.hydrogenaudio.org/forums/...=66233&st=1075

    Not sure the developer of cuetools frequents these parts all the time.

Posting Permissions

  • You may not post new threads
  • You may not post replies
  • You may not post attachments
  • You may not edit your posts
  •