title
Products            Buy            Support Forum            Professional            About            Codec Central
 
Results 1 to 4 of 4

Thread: Rip Status Inaccurate

  1. #1

    Join Date
    Nov 2009
    Posts
    2

    Rip Status Inaccurate

    I tied ripping a 2 CDs (brand new). 1st CD ripped accurately with Rip Status as accurate for all tracks. However CD2 returned Inaccurate Ripping Status for all tracks. Log for CD2 is given below.

    Please suggest if I need to do something differently in order to rip this CD accurately. I am using HL-DT-ST - DVDRW GSA-S10N.



    Information ripping to FLAC, 'Track 1' to 'G:\Flac Temp\Righteous Brothers\Gold, Disc 2\01 Righteous Brothers - (You're My) Soul & Inspiration.flac'
    Track 1: Ripped LBA 0 to 14674 (3:15) in 1:13. Filename: G:\Flac Temp\Righteous Brothers\Gold, Disc 2\01 Righteous Brothers - (You're My) Soul & Inspiration.flac
    AccurateRip: Inaccurate (confidence 8) Secure [Pass 1 & 2]
    CRC32: 48CB732E AccurateRip CRC: 6E921201 [DiscID: 024-003dc0f4-04351d4a-5c116218-1]

    Information ripping to FLAC, 'Track 2' to 'G:\Flac Temp\Righteous Brothers\Gold, Disc 2\02 Righteous Brothers - Stand By.flac'
    Track 2: Ripped LBA 14674 to 27047 (2:44) in 0:57. Filename: G:\Flac Temp\Righteous Brothers\Gold, Disc 2\02 Righteous Brothers - Stand By.flac
    AccurateRip: Inaccurate (confidence 6) Secure [Pass 1 & 2]
    CRC32: EFCA34E5 AccurateRip CRC: D267BDC4 [DiscID: 024-003dc0f4-04351d4a-5c116218-2]

    Information ripping to FLAC, 'Track 3' to 'G:\Flac Temp\Righteous Brothers\Gold, Disc 2\03 Righteous Brothers - He.flac'
    Track 3: Ripped LBA 27047 to 40598 (3:00) in 0:58. Filename: G:\Flac Temp\Righteous Brothers\Gold, Disc 2\03 Righteous Brothers - He.flac
    AccurateRip: Inaccurate (confidence 7) Secure [Pass 1 & 2]
    CRC32: B692B442 AccurateRip CRC: 897EBDF0 [DiscID: 024-003dc0f4-04351d4a-5c116218-3]

    Information ripping to FLAC, 'Track 4' to 'G:\Flac Temp\Righteous Brothers\Gold, Disc 2\04 Righteous Brothers - Go Ahead and Cry.flac'
    Track 4: Ripped LBA 40598 to 52032 (2:32) in 0:47. Filename: G:\Flac Temp\Righteous Brothers\Gold, Disc 2\04 Righteous Brothers - Go Ahead and Cry.flac
    AccurateRip: Inaccurate (confidence 7) Secure [Pass 1 & 2]
    CRC32: A7764258 AccurateRip CRC: 798F7775 [DiscID: 024-003dc0f4-04351d4a-5c116218-4]

    Information ripping to FLAC, 'Track 5' to 'G:\Flac Temp\Righteous Brothers\Gold, Disc 2\05 Righteous Brothers - Something You Got.flac'
    Track 5: Ripped LBA 52032 to 63151 (2:28) in 0:43. Filename: G:\Flac Temp\Righteous Brothers\Gold, Disc 2\05 Righteous Brothers - Something You Got.flac
    AccurateRip: Inaccurate (confidence 7) Secure [Pass 1 & 2]
    CRC32: 97002658 AccurateRip CRC: A0EAFD95 [DiscID: 024-003dc0f4-04351d4a-5c116218-5]

    Information ripping to FLAC, 'Track 6' to 'G:\Flac Temp\Righteous Brothers\Gold, Disc 2\06 Righteous Brothers - On This Side of Goodbye.flac'
    Track 6: Ripped LBA 63151 to 77100 (3:05) in 0:52. Filename: G:\Flac Temp\Righteous Brothers\Gold, Disc 2\06 Righteous Brothers - On This Side of Goodbye.flac
    AccurateRip: Inaccurate (confidence 7) Secure [Pass 1 & 2]
    CRC32: E731BB19 AccurateRip CRC: 285E3474 [DiscID: 024-003dc0f4-04351d4a-5c116218-6]

    Information ripping to FLAC, 'Track 7' to 'G:\Flac Temp\Righteous Brothers\Gold, Disc 2\07 Righteous Brothers - A Man Without a Dream.flac'
    Track 7: Ripped LBA 77100 to 89593 (2:46) in 0:45. Filename: G:\Flac Temp\Righteous Brothers\Gold, Disc 2\07 Righteous Brothers - A Man Without a Dream.flac
    AccurateRip: Inaccurate (confidence 6) Secure [Pass 1 & 2]
    CRC32: 51C4A92E AccurateRip CRC: D679CE8F [DiscID: 024-003dc0f4-04351d4a-5c116218-7]

    Information ripping to FLAC, 'Track 8' to 'G:\Flac Temp\Righteous Brothers\Gold, Disc 2\08 Righteous Brothers - Melancholy Music Man.flac'
    Track 8: Ripped LBA 89593 to 101402 (2:37) in 0:41. Filename: G:\Flac Temp\Righteous Brothers\Gold, Disc 2\08 Righteous Brothers - Melancholy Music Man.flac
    AccurateRip: Inaccurate (confidence 7) Secure [Pass 1 & 2]
    CRC32: 7CB3406C AccurateRip CRC: 7977C922 [DiscID: 024-003dc0f4-04351d4a-5c116218-8]

    Information ripping to FLAC, 'Track 9' to 'G:\Flac Temp\Righteous Brothers\Gold, Disc 2\09 Righteous Brothers - Stranded in the Middle of No Place.flac'
    Track 9: Ripped LBA 101402 to 117540 (3:35) in 0:54. Filename: G:\Flac Temp\Righteous Brothers\Gold, Disc 2\09 Righteous Brothers - Stranded in the Middle of No Place.flac
    AccurateRip: Inaccurate (confidence 6) Secure [Pass 1 & 2]
    CRC32: C1CFA540 AccurateRip CRC: 381F8EDB [DiscID: 024-003dc0f4-04351d4a-5c116218-9]

    Information ripping to FLAC, 'Track 10' to 'G:\Flac Temp\Righteous Brothers\Gold, Disc 2\10 Bill Medley - That Lucky Old Sun (Just Rolls Around Heaven All Day).flac'
    Track 10: Ripped LBA 117540 to 135193 (3:55) in 0:56. Filename: G:\Flac Temp\Righteous Brothers\Gold, Disc 2\10 Bill Medley - That Lucky Old Sun (Just Rolls Around Heaven All Day).flac
    AccurateRip: Inaccurate (confidence 6) Secure [Pass 1 & 2]
    CRC32: 1F9E8674 AccurateRip CRC: E6C2A2B1 [DiscID: 024-003dc0f4-04351d4a-5c116218-10]

    Information ripping to FLAC, 'Track 11' to 'G:\Flac Temp\Righteous Brothers\Gold, Disc 2\11 Bobby Hatfield - Hang-Ups.flac'
    Track 11: Ripped LBA 135193 to 147906 (2:49) in 0:39. Filename: G:\Flac Temp\Righteous Brothers\Gold, Disc 2\11 Bobby Hatfield - Hang-Ups.flac
    AccurateRip: Inaccurate (confidence 4) Secure [Pass 1 & 2]
    CRC32: 2BCCE5DC AccurateRip CRC: F1B3D540 [DiscID: 024-003dc0f4-04351d4a-5c116218-11]

    Information ripping to FLAC, 'Track 12' to 'G:\Flac Temp\Righteous Brothers\Gold, Disc 2\12 Bobby Hatfield - Brothers.flac'
    Track 12: Ripped LBA 147906 to 158633 (2:23) in 0:32. Filename: G:\Flac Temp\Righteous Brothers\Gold, Disc 2\12 Bobby Hatfield - Brothers.flac
    AccurateRip: Inaccurate (confidence 4) Secure [Pass 1 & 2]
    CRC32: FE74A713 AccurateRip CRC: 3085F8C8 [DiscID: 024-003dc0f4-04351d4a-5c116218-12]

    Information ripping to FLAC, 'Track 13' to 'G:\Flac Temp\Righteous Brothers\Gold, Disc 2\13 Bill Medley - I Can't Make It Alone.flac'
    Track 13: Ripped LBA 158633 to 170149 (2:33) in 0:33. Filename: G:\Flac Temp\Righteous Brothers\Gold, Disc 2\13 Bill Medley - I Can't Make It Alone.flac
    AccurateRip: Inaccurate (confidence 6) Secure [Pass 1 & 2]
    CRC32: 1A7A52D9 AccurateRip CRC: 10EAAED4 [DiscID: 024-003dc0f4-04351d4a-5c116218-13]

    Information ripping to FLAC, 'Track 14' to 'G:\Flac Temp\Righteous Brothers\Gold, Disc 2\14 Bill Medley - Brown Eyed Woman.flac'
    Track 14: Ripped LBA 170149 to 185016 (3:18) in 0:42. Filename: G:\Flac Temp\Righteous Brothers\Gold, Disc 2\14 Bill Medley - Brown Eyed Woman.flac
    AccurateRip: Inaccurate (confidence 6) Secure [Pass 1 & 2]
    CRC32: D924AB97 AccurateRip CRC: 07DEF389 [DiscID: 024-003dc0f4-04351d4a-5c116218-14]

    Information ripping to FLAC, 'Track 15' to 'G:\Flac Temp\Righteous Brothers\Gold, Disc 2\15 Bill Medley - Peace Brother Peace.flac'
    Track 15: Ripped LBA 185016 to 204359 (4:17) in 0:54. Filename: G:\Flac Temp\Righteous Brothers\Gold, Disc 2\15 Bill Medley - Peace Brother Peace.flac
    AccurateRip: Inaccurate (confidence 6) Secure [Pass 1 & 2]
    CRC32: CB2219E4 AccurateRip CRC: 0C10645E [DiscID: 024-003dc0f4-04351d4a-5c116218-15]

    Information ripping to FLAC, 'Track 16' to 'G:\Flac Temp\Righteous Brothers\Gold, Disc 2\16 Bill Medley - This Is a Love Song.flac'
    Track 16: Ripped LBA 204359 to 218779 (3:12) in 0:39. Filename: G:\Flac Temp\Righteous Brothers\Gold, Disc 2\16 Bill Medley - This Is a Love Song.flac
    AccurateRip: Inaccurate (confidence 6) Secure [Pass 1 & 2]
    CRC32: DF0B6968 AccurateRip CRC: 7EA66E64 [DiscID: 024-003dc0f4-04351d4a-5c116218-16]

    Information ripping to FLAC, 'Track 17' to 'G:\Flac Temp\Righteous Brothers\Gold, Disc 2\17 Bobby Hatfield - Only You (And You Alone).flac'
    Track 17: Ripped LBA 218779 to 231465 (2:49) in 0:33. Filename: G:\Flac Temp\Righteous Brothers\Gold, Disc 2\17 Bobby Hatfield - Only You (And You Alone).flac
    AccurateRip: Inaccurate (confidence 6) Secure [Pass 1 & 2]
    CRC32: 9B7D9A33 AccurateRip CRC: C2A087AA [DiscID: 024-003dc0f4-04351d4a-5c116218-17]

    Information ripping to FLAC, 'Track 18' to 'G:\Flac Temp\Righteous Brothers\Gold, Disc 2\18 Bobby Hatfield - My Prayer.flac'
    Track 18: Ripped LBA 231465 to 244801 (2:57) in 0:34. Filename: G:\Flac Temp\Righteous Brothers\Gold, Disc 2\18 Bobby Hatfield - My Prayer.flac
    AccurateRip: Inaccurate (confidence 6) Secure [Pass 1 & 2]
    CRC32: 6DF77042 AccurateRip CRC: 006E0886 [DiscID: 024-003dc0f4-04351d4a-5c116218-18]

    Information ripping to FLAC, 'Track 19' to 'G:\Flac Temp\Righteous Brothers\Gold, Disc 2\19 Bobby Hatfield - Answer Me My Love.flac'
    Track 19: Ripped LBA 244801 to 255556 (2:23) in 0:27. Filename: G:\Flac Temp\Righteous Brothers\Gold, Disc 2\19 Bobby Hatfield - Answer Me My Love.flac
    AccurateRip: Inaccurate (confidence 6) Secure [Pass 1 & 2]
    CRC32: 6F455FCA AccurateRip CRC: 286DDCAE [DiscID: 024-003dc0f4-04351d4a-5c116218-19]

    Information ripping to FLAC, 'Track 20' to 'G:\Flac Temp\Righteous Brothers\Gold, Disc 2\20 Righteous Brothers - Woman, Man Needs Ya.flac'
    Track 20: Ripped LBA 255556 to 271589 (3:33) in 0:40. Filename: G:\Flac Temp\Righteous Brothers\Gold, Disc 2\20 Righteous Brothers - Woman, Man Needs Ya.flac
    AccurateRip: Inaccurate (confidence 6) Secure [Pass 1 & 2]
    CRC32: A77A15FB AccurateRip CRC: 293E6C0C [DiscID: 024-003dc0f4-04351d4a-5c116218-20]

    Information ripping to FLAC, 'Track 21' to 'G:\Flac Temp\Righteous Brothers\Gold, Disc 2\21 Bill Medley - Someone Is Standing Outside.flac'
    Track 21: Ripped LBA 271589 to 286429 (3:17) in 0:36. Filename: G:\Flac Temp\Righteous Brothers\Gold, Disc 2\21 Bill Medley - Someone Is Standing Outside.flac
    AccurateRip: Inaccurate (confidence 6) Secure [Pass 1 & 2]
    CRC32: 9273C538 AccurateRip CRC: 95465413 [DiscID: 024-003dc0f4-04351d4a-5c116218-21]

    Information ripping to FLAC, 'Track 22' to 'G:\Flac Temp\Righteous Brothers\Gold, Disc 2\22 Righteous Brothers - Rock and Roll Heaven.flac'
    Track 22: Ripped LBA 286429 to 302399 (3:32) in 0:38. Filename: G:\Flac Temp\Righteous Brothers\Gold, Disc 2\22 Righteous Brothers - Rock and Roll Heaven.flac
    AccurateRip: Inaccurate (confidence 6) Secure [Pass 1 & 2]
    CRC32: 5989AF81 AccurateRip CRC: 35F0995D [DiscID: 024-003dc0f4-04351d4a-5c116218-22]

    Information ripping to FLAC, 'Track 23' to 'G:\Flac Temp\Righteous Brothers\Gold, Disc 2\23 Righteous Brothers - Give It to the People.flac'
    Track 23: Ripped LBA 302399 to 317895 (3:26) in 0:36. Filename: G:\Flac Temp\Righteous Brothers\Gold, Disc 2\23 Righteous Brothers - Give It to the People.flac
    AccurateRip: Inaccurate (confidence 6) Secure [Pass 1 & 2]
    CRC32: 72F2C3C0 AccurateRip CRC: 0FF97E74 [DiscID: 024-003dc0f4-04351d4a-5c116218-23]

    Information ripping to FLAC, 'Track 24' to 'G:\Flac Temp\Righteous Brothers\Gold, Disc 2\24 Righteous Brothers - Dream On.flac'
    Track 24: Ripped LBA 317895 to 333786 (3:31) in 0:36. Filename: G:\Flac Temp\Righteous Brothers\Gold, Disc 2\24 Righteous Brothers - Dream On.flac
    AccurateRip: Inaccurate (confidence 7) Secure [Pass 1 & 2]
    CRC32: B3B9BD61 AccurateRip CRC: 3933EB64 [DiscID: 024-003dc0f4-04351d4a-5c116218-24]

  2. #2
    dBpoweramp Guru
    Join Date
    Nov 2007
    Location
    Florida, USA
    Posts
    4,281

    Re: Rip Status Inaccurate

    Looks like a secure rip, just doesn't match the accuraterip database. This is common when there are multiple pressings of a CD and yours is a different pressing than the one in the database. (i'd say only about 1/3 of my 5,000 or so CDs match the database, even though I get secure rips....again, different pressings can cause this result).
    Last edited by garym; 12-10-2009 at 10:52 AM.

  3. #3

    Join Date
    Aug 2014
    Location
    Chicago suburbs
    Posts
    9

    Re: Rip Status Inaccurate

    I'm getting inaccuracies on one or two tracks. I think the thing to do is re-rip those tracks under the more demanding criteria.

    Does anyone have another suggestion?

  4. #4
    Administrator
    Join Date
    Apr 2002
    Posts
    38,586

    Re: Rip Status Inaccurate

    Try cleaning the CD, or try in a different cd drive if you have.

Tags for this Thread

Posting Permissions

  • You may not post new threads
  • You may not post replies
  • You may not post attachments
  • You may not edit your posts
  •