PDA

View Full Version : Interpreting AccurateRip information from PerfectTunes



Porcus
10-01-2016, 02:38 PM
I have tried PerfectTunes again. (The free version.) Some of the information could be a bit strange I think.

I checked a few hundred albums which were not in AccurateRip when they were ripped (or only with a different offset, back in the days of v12). Confidence of 2 required. All files are FLAC. One track per file (with a few exceptions with embedded cuesheet, where I did not expect things to be correct)


* "Albums With Ripping Errors"
- I do not get a single "InAccurate" here. All eight albums have at least one track with "Not Enough Information in AccurateRip to Verify" - and all albums have a confidence of 2 on the rest.
Does this mean that PerfectTunes finds two different ones? If so, it cannot know which one has ripping errors? Or does it mean it finds two which agree, but disagree with mine?
Disc IDs: 010-000ae50a-0054ff34-84061c0a, 012-0013a9cf-00b85c68-af0bb30d, 012-0018d3e0-00f364ce-9511560d (a DBD), 005-00043ea3-00141336-3b050105, 014-001a0aad-011a0d8e-c00cad0e, 011-0016d983-00c604bf-930d1d0b, 012-001b3403-00f946f5-b10d4e0c, 017-0025230d-01e8cebb-ef0fe411


* "Albums Accurately Ripped"
- Quite a few of my HDCDs that were decoded to 24-bit files (I still regret!) are in fact verified as Accurate. Could that be correct? At least one of these albums peak at 1, and reducing bit depth to 16 gives different files.
- What to take home from the following:
Southfork - Southfork [AccurateRip DiscIDs: 010-00117f60-008d85f7-910b720a]
Track 1: AccurateRip Verified Confidence 2, Pressing Offset -669 [ARv2 CRC C6502D45]
Does this mean that both these hits were with -669? Not one -669 and one something else? (Why ask? Some albums I have re-ripped, and if both hits are offset, then none are mine.)
- Likewise, what to learn from the following:
Ian Anderson - Divinities: Four Dances With God [AccurateRip DiscIDs: 004-000270a3-0009c1b0-1f035704]
Track 1: AccurateRip Verified Confidence 2, Pressing Offset +0 [ARv2 CRC 475955F5]
Does this mean that this one hits two ARv2 submissions?


* "Albums Not Present in AccurateRip"
Most of these return "Track Not Present in AccurateRip" on every track.
- But there are exceptions where the log is uninformative:
Abaddon - I Am Legion [AccurateRip DiscIDs: 008-000a123f-00428ad3-4e078208]
Track 1: G:\<rest of path>
Track 2: G:\<rest of path>
Track 3: G:\<rest of path>
Track 4: G:\<rest of path>
Track 5: G:\<rest of path>
Track 6: G:\<rest of path>
Track 7: G:\<rest of path>
Track 8: G:\<rest of path>
(that is all the tracks of the album).
- And there are exceptions reported as InAccurate:
Allhelluja - Inferno Museum [AccurateRip DiscIDs: 010-0010d6c8-0085a836-7c0a4b0a]
Track 1: Track InAccurate G:\<rest of path>
<similar for all the other tracks>

How come?
(I should mention that it seems to be all-or-nothing within the same album. Does PerfectTunes infer that an album is not in AccurateRip if all tracks are inaccurate? If so, how many tracks must the album then have?)


* "Not Lossless CD Quality"
Precisely one of the 24-bit (HDCD decoded) albums tested, is reported as Not Lossless CD Quality:
Kent - Vapen & Ammunition [AccurateRip DiscIDs: 010-00134672-00a07075-9811560b] Cannot Check: Not Lossless CD Quality
... but not the other 24-bit files! How come?

Porcus
10-01-2016, 04:26 PM
Made a "problem child" folder to test. Found some behaviour I would possibly call "bugs":

- PerfectTunes finds one corrupted file (it is indeed corrupted), but still reports the album as Accurate.
- When a file is too corrupted to even have an output (dBpoweramp wrote a file with just metadata and no audio, and I kept it as placeholder), then PerfectTunes does not even report it as corrupted. Only in the list of "Albums Accurately Ripped" it says that the track is too short. But AccurateRip knows that the track in fact is long enough to be in the database (the rest of the album has twenty-something confidence, so I take for granted that 008-0010b9df-006af1dc-4f0cf408-8 exists in AccurateRip) - and PerfectTunes should know as well.

And then this:
014-002122d5-0172788b-c412bb0f] Cannot Check: Incomplete Album
Then it outputs " Track 1: <path>" etc. for fourteen tracks, but does not report accurate-ness of any of them. I believe it was an Enhanced CD, so that fourteen is indeed all - maybe you can check from the disc id.

So: why does PerfectTunes complain over this "Incomplete Album", when the former albums (that really miss stuff) are reported as Accurate?

y6gvrswv
10-02-2016, 03:43 AM
Hello Porcus, I have a similar quandary. One CD in Particular David Gray 'White Ladder' the version with the hidden first track.
when putting the CD in the drive, dbpoweramp reports that all tracks are accurate (200).
However even after clearing the database cache in Perfect TUNES AccurateRip reports that only track four is accurate.
I have re ripped the CD several times using two different CD drives and the results are always the same.

Porcus
10-02-2016, 06:55 AM
Seems that I just have been lucky about the could-not-verify not being verified wrong ... good, but unexpected.


Precisely one of the 24-bit (HDCD decoded) albums tested, is reported as Not Lossless CD Quality:

The strange thing is of course that some of the 24-bit converts are indeed verified - not that some fail. There are more than this single one though - a few "Could not connect" issues. I have run PerfectTunes a couple of times now, and there are always some "Could not connect".

So here is a feature suggestion to save bandwidth PerfectTunes could cache the Accuraterip IDs and checksums and the time of last check - and then ask the AccurateRip database whether it has been updated since then. If neither the checksums nor the database have changed - then there should normally not be a need to re-query.


Edit: one more thing: PerfectTunes insists that two albums (single-track FLAC with embedded cuesheet, I do not expect them to verify) are "Various Artists". I see no reason why.

Spoon
10-02-2016, 07:01 AM
I will make a note to look at this thread specifics next time I update PerfectTUNES, a few points:

When ripping the CD there is more information available to accuraterip than later on with just the files.

24 bit files can verify if you have the option on to use the ID tags to check against accuraterip.

Porcus
10-02-2016, 01:21 PM
I certainly understand your terse answers to all dumb questions users like myself could ask (you have limited time and you respond to most user questions),
but if I may:

- Does
Verified Confidence 2, Pressing Offset -669
mean that none of the 2 had offset 0?

Does
Verified Confidence 2, Pressing Offset +0 [ARv2
mean both are ARv2 entries?

Spoon
10-13-2016, 08:57 AM
Yes to both

Porcus
11-03-2016, 11:26 AM
Here is another issue: A disc has a lot of 4.00 seconds tracks reported as Inaccurate - they are not silence, no. I actually thought that short tracks were not in AccurateRip, but CUETools reports each and every one of these as 1+1/2 (and the rest of the disc as more, as does PerfectTunes). The AR1 entry is most likely mine.
Tracks 10 to 87 of disc 0160a4ab-424ded70-4910e058 (yeah, embarrassed to have paid for that thing, s88t happens).

Spoon
11-03-2016, 11:28 AM
I thought that AccurateRip needed 10 seconds of tracks to store the result, perhaps cuetools is using its own database.

Porcus
11-04-2016, 09:57 AM
I thought that AccurateRip needed 10 seconds of tracks to store the result, perhaps cuetools is using its own database.

Although I have heard same (450 though, that is six seconds), I have tracks down below half a second which were ripped Accurate using dBpoweramp v13. Disc 00d7dfcb-2103759c-370cb845

Also, both PerfectTunes and CUETools - and foobar2000 though not the ARV2 match - actually find hits (and yes I can tell AR from CTDB).
The only difference is that PerfectTunes thinks they are InAccurate.


Below is pasted the report with CTDB turned off, i.e., only AR - and then the fb2k output.



[CUETools log; Date: 04.11.2016 16:44:10; Version: 2.1.6][AccurateRip ID: 0160a4ab-424ded70-4910e058] found.
Track [ CRC | V2 ] Status
01 [5e4d9eeb|1ae4f2ca] (4+2/8) Accurately ripped
02 [094e3a59|feb8f1cf] (4+2/8) Accurately ripped
03 [35d534d5|aca8a197] (4+0/6) Accurately ripped
04 [6d9695a3|851e2a7e] (4+2/8) Accurately ripped
05 [a2a38ef9|b0d0acbe] (4+2/8) Accurately ripped
06 [6f131ad4|3011e08d] (4+2/8) Accurately ripped
07 [e0bac076|7a8d1cc3] (4+2/8) Accurately ripped
08 [7364a59c|baf0d274] (4+2/8) Accurately ripped
09 [6bc76e19|a4dda530] (4+2/8) Accurately ripped
10 [925cc1e0|7b7f4a88] (1+1/2) Accurately ripped
11 [5856d45d|4a1ce236] (1+1/2) Accurately ripped
12 [c1fd9bbd|b22daf22] (1+1/2) Accurately ripped
13 [4fe847b5|32c14354] (1+1/2) Accurately ripped
14 [3dc03d3e|2588298d] (1+1/2) Accurately ripped
15 [316b56f6|23d889cc] (1+1/2) Accurately ripped
16 [e921da5b|cb3089e2] (1+1/2) Accurately ripped
17 [eab26a5d|e3be2c44] (1+1/2) Accurately ripped
18 [15121a74|09f0e0b0] (1+1/2) Accurately ripped
19 [0e5b6e15|0c112ccc] (1+1/2) Accurately ripped
20 [6471634f|59f2c7a9] (1+1/2) Accurately ripped
21 [13606639|fc2ddb2e] (1+1/2) Accurately ripped
22 [64d3be14|5d6d995d] (1+1/2) Accurately ripped
23 [6b2866a4|62eef2ce] (1+1/2) Accurately ripped
24 [438d29a6|36d5e3f7] (1+1/2) Accurately ripped
25 [71144dd1|63f0cf13] (1+1/2) Accurately ripped
26 [6c4ac87a|5b2f14e0] (1+1/2) Accurately ripped
27 [70abfe03|61b1b1a9] (1+1/2) Accurately ripped
28 [4009b04a|310458bb] (1+1/2) Accurately ripped
29 [c66f71e6|bc88c4c3] (1+1/2) Accurately ripped
30 [d96813f4|ca256ffd] (1+1/2) Accurately ripped
31 [46f31ac4|360f9baf] (1+1/2) Accurately ripped
32 [46d96331|38ef22e6] (1+1/2) Accurately ripped
33 [e69a852e|d3b4f980] (1+1/2) Accurately ripped
34 [acc67811|9c01ac78] (1+1/2) Accurately ripped
35 [39157574|2d3bb0af] (1+1/2) Accurately ripped
36 [c302ecf0|b4ce5f2f] (1+1/2) Accurately ripped
37 [ba42a326|a6f5c535] (1+1/2) Accurately ripped
38 [8c8f218c|77232186] (1+1/2) Accurately ripped
39 [89e804af|786f9917] (1+1/2) Accurately ripped
40 [d8fca093|cb85c320] (1+1/2) Accurately ripped
41 [69594611|5958df3e] (1+1/2) Accurately ripped
42 [bfb39ec0|b09c4fb7] (1+1/2) Accurately ripped
43 [c6618c5e|b924fc25] (1+1/2) Accurately ripped
44 [16db74ef|05f88cb1] (1+1/2) Accurately ripped
45 [cfa57488|ba3f77c7] (1+1/2) Accurately ripped
46 [6ff0e148|5cc92ec4] (1+1/2) Accurately ripped
47 [d6c86ae9|c21c6656] (1+1/2) Accurately ripped
48 [98dae4c1|908c5231] (1+1/2) Accurately ripped
49 [0bed27e6|fd0d3200] (1+1/2) Accurately ripped
50 [cddc5487|bc519978] (1+1/2) Accurately ripped
51 [234949ff|0f9faabd] (1+1/2) Accurately ripped
52 [a706c5d9|842ae850] (1+1/2) Accurately ripped
53 [fec37ba7|f76ff29b] (1+1/2) Accurately ripped
54 [dceb2e47|cb059f50] (1+1/2) Accurately ripped
55 [3bbb92e7|1bdf25fc] (1+1/2) Accurately ripped
56 [cb3ea7d8|a9b4105a] (1+1/2) Accurately ripped
57 [21daba72|09d2ed39] (1+1/2) Accurately ripped
58 [5cf413db|44844f30] (1+1/2) Accurately ripped
59 [2e772398|13dca60e] (1+1/2) Accurately ripped
60 [096eeea6|e9d4bc66] (1+1/2) Accurately ripped
61 [e1b7afb5|c7fcd136] (1+1/2) Accurately ripped
62 [1ff4b3fd|031e3096] (1+1/2) Accurately ripped
63 [87234133|709b3c19] (1+1/2) Accurately ripped
64 [e03ade97|c2feaca0] (1+1/2) Accurately ripped
65 [f5d320c1|e6f82cb7] (1+1/2) Accurately ripped
66 [37b79d50|12687a8f] (1+1/2) Accurately ripped
67 [b8829edc|9d4f72b5] (1+1/2) Accurately ripped
68 [fd931dc1|e7f26071] (1+1/2) Accurately ripped
69 [31e77b61|20f73137] (1+1/2) Accurately ripped
70 [4badb912|375cd4f1] (1+1/2) Accurately ripped
71 [f890e51e|e5d1eeb6] (1+1/2) Accurately ripped
72 [76e8fa7c|6ea41f41] (1+1/2) Accurately ripped
73 [2d6d68e2|1d67397f] (1+1/2) Accurately ripped
74 [e3bc62e9|d2174aaa] (1+1/2) Accurately ripped
75 [6357d648|640faf49] (1+1/2) Accurately ripped
76 [c017d291|b2c3692c] (1+1/2) Accurately ripped
77 [65ad584f|692e784d] (1+1/2) Accurately ripped
78 [3efc6ce4|41856748] (1+1/2) Accurately ripped
79 [22d3805b|2839b1e6] (1+1/2) Accurately ripped
80 [26268f51|197f6998] (1+1/2) Accurately ripped
81 [4e4db108|4b1673ab] (1+1/2) Accurately ripped
82 [35c1a6af|18446f60] (1+1/2) Accurately ripped
83 [a804c13c|9dacaf0e] (1+1/2) Accurately ripped
84 [17dd1594|155d2623] (1+1/2) Accurately ripped
85 [e144c411|c9d055f3] (1+1/2) Accurately ripped
86 [dbe0f4ec|bc0df189] (1+1/2) Accurately ripped
87 [5a304026|90c7a39d] (1+1/2) Accurately ripped
88 [a35cb8b8|e0106760] (4+2/8) Accurately ripped
Offsetted by -659:
01 [5ac1a4c1] (0/8) No match (V2 was not tested)
02 [f3c1f25a] (0/8) No match (V2 was not tested)
03 [31a9284d] (0/6) No match (V2 was not tested)
04 [84ac812d] (0/8) No match (V2 was not tested)
05 [b36bfc94] (0/8) No match (V2 was not tested)
06 [e3087c12] (0/8) No match (V2 was not tested)
07 [65fdad0b] (0/8) No match (V2 was not tested)
08 [38564b41] (0/8) No match (V2 was not tested)
09 [963c2697] (0/8) No match (V2 was not tested)
10 [bbeb1ca5] (0/2) No match
11 [a745c8a2] (0/2) No match
12 [09bf8690] (0/2) No match
13 [df2b884d] (0/2) No match
14 [bdce1340] (0/2) No match
15 [7ade75da] (0/2) No match
16 [d9c90384] (0/2) No match
17 [675b25fa] (0/2) No match
18 [a0c90e08] (0/2) No match
19 [0c32b1db] (0/2) No match
20 [0ed781c1] (0/2) No match
21 [2cf07c70] (0/2) No match
22 [cfe4e76b] (0/2) No match
23 [4ec56c9f] (0/2) No match
24 [db279658] (0/2) No match
25 [8ad04e3d] (0/2) No match
26 [a61bc89d] (0/2) No match
27 [a129ed97] (0/2) No match
28 [ea0d7093] (0/2) No match
29 [e7ba483b] (0/2) No match
30 [3cdc5649] (0/2) No match
31 [837950f6] (0/2) No match
32 [b46a572f] (0/2) No match
33 [d0b56c7a] (0/2) No match
34 [c30753ac] (0/2) No match
35 [d20c5793] (0/2) No match
36 [296669f5] (0/2) No match
37 [a9bfd5a9] (0/2) No match
38 [f11d0982] (0/2) No match
39 [55721942] (0/2) No match
40 [a157675b] (0/2) No match
41 [d6173a2c] (0/2) No match
42 [affe7086] (0/2) No match
43 [338c7b8c] (0/2) No match
44 [6b3c8817] (0/2) No match
45 [6e55a90a] (0/2) No match
46 [ade56975] (0/2) No match
47 [9cd6de10] (0/2) No match
48 [95335ba7] (0/2) No match
49 [b7f0fcf5] (0/2) No match
50 [b66c9151] (0/2) No match
51 [6aeed65b] (0/2) No match
52 [846f943a] (0/2) No match
53 [62097b49] (0/2) No match
54 [12f2be56] (0/2) No match
55 [b3b40cd6] (0/2) No match
56 [76ef8b75] (0/2) No match
57 [f0577b59] (0/2) No match
58 [4509039d] (0/2) No match
59 [a72f0cee] (0/2) No match
60 [cbcc7090] (0/2) No match
61 [16b9ba8f] (0/2) No match
62 [779ef9a7] (0/2) No match
63 [e013de7b] (0/2) No match
64 [3b279657] (0/2) No match
65 [6ca90980] (0/2) No match
66 [15981e8c] (0/2) No match
67 [fbe4cbf0] (0/2) No match
68 [4bef9f03] (0/2) No match
69 [b23191ce] (0/2) No match
70 [fe826c53] (0/2) No match
71 [bdecafd9] (0/2) No match
72 [4d27fe3b] (0/2) No match
73 [629f5af2] (0/2) No match
74 [5b88a2a9] (0/2) No match
75 [7ab08dcc] (0/2) No match
76 [daecceb1] (0/2) No match
77 [9e6101cc] (0/2) No match
78 [a1675137] (0/2) No match
79 [172f7a54] (0/2) No match
80 [90098f43] (0/2) No match
81 [eeb7413a] (0/2) No match
82 [79ba8f8f] (0/2) No match
83 [c888cc0a] (0/2) No match
84 [adc7560b] (0/2) No match
85 [2d8730eb] (0/2) No match
86 [b98db7fb] (0/2) No match
87 [e78563c9] (0/2) No match
88 [f62d8ffa] (0/8) No match (V2 was not tested)


Track Peak [ CRC32 ] [W/O NULL]
-- 100,0 [6AD04977] [CD3DCF59]
01 97,6 [C3010D99] [E167971B]
02 97,7 [27E92C9F] [286A3F7B]
03 99,9 [BA54E78A] [7F9A3C56]
04 97,6 [F7E809BD] [473C2E55]
05 98,4 [B3F19F32] [AF79D26B]
06 97,7 [5992CDE7] [0ABBFFC6]
07 97,7 [5AD97741] [CBC42AB5]
08 97,6 [FA1BC36C] [E07A0DB9]
09 100,0 [FB488FF3] [BA5FD2DA]
10 22,1 [B7C76B17] [0A037F8F]
11 10,8 [7F8988AC] [6A0EF38E]
12 20,7 [20FA1655] [D3DEAAD8]
13 15,4 [E7FDE3CB] [43331246]
14 30,7 [93E9D7A7] [369F560E]
15 4,3 [018AA3E9] [E0ACB668]
16 15,9 [F1838E07] [C300D0F7]
17 6,8 [F3B60201] [9AF3B9E9]
18 10,4 [9DAE2387] [4EDCDF67]
19 2,6 [2F7AE831] [448B6269]
20 7,1 [6640B4B3] [7BDFC419]
21 11,9 [0697D4D8] [D9C1A357]
22 4,7 [6B89804A] [444C9A65]
23 6,3 [F434FBEC] [CC666098]
24 8,7 [6A4A90DF] [DFCAA8C4]
25 9,0 [870EC7DE] [91CB1BB9]
26 13,9 [88065791] [C746BA58]
27 7,9 [DAF94642] [9B31EE9E]
28 12,4 [90A0C361] [A3045B12]
29 10,2 [0430410E] [891B7848]
30 10,1 [29A0E20E] [9508900E]
31 16,7 [CC923ECC] [B978A200]
32 5,6 [AC75CFF6] [E6619478]
33 14,7 [9BDAF64E] [75B80369]
34 10,5 [58F76C73] [3E10D257]
35 7,9 [A378BFA7] [15A0D095]
36 3,0 [B7BEAD99] [19A92209]
37 17,0 [2F22682B] [E79C1AF5]
38 18,5 [16A42863] [22AA2DB9]
39 10,5 [831B3882] [A3F0C401]
40 13,4 [F40F1357] [D5128AA7]
41 8,5 [76BB0624] [24588BBD]
42 8,8 [E17D37E1] [D5F8D567]
43 3,4 [65E8A59A] [80F80619]
44 24,4 [DB9FAC67] [07332E6B]
45 11,0 [7B1264CC] [54932C23]
46 16,5 [EFAA4BF8] [C4AE4E79]
47 21,6 [A7A203FB] [A4DB115B]
48 29,0 [CECDB6E1] [32DAA499]
49 22,9 [81A7D9E7] [F38E59F7]
50 22,2 [EC9F516E] [76F56013]
51 16,3 [1D4C5A56] [EDA57C21]
52 19,7 [884E6929] [87B5D4F6]
53 23,6 [31741FFE] [8A696198]
54 25,7 [C8F860EF] [495BD178]
55 18,5 [3A294AD8] [915A07F2]
56 19,5 [00B79A99] [D49AC1C9]
57 19,6 [9EB92A4B] [3345BE35]
58 15,1 [1E4D5ABF] [3FD26F38]
59 22,0 [42B4A613] [1ADA31A7]
60 24,8 [71C3E2DC] [2C16E09C]
61 25,1 [9519D81E] [D43B4F7A]
62 16,3 [F63B1F99] [D9421196]
63 9,1 [1C2BA93B] [760692C4]
64 10,1 [A4E0674C] [BD99EEB1]
65 14,2 [E9B25B12] [F262AF9B]
66 25,5 [97B486A9] [6EEBD0A8]
67 16,6 [274CF07B] [A2BAF531]
68 16,4 [0159B608] [DD8BECD9]
69 10,0 [8DD5CFE4] [89593C6B]
70 13,3 [B4F3822E] [76C07C8D]
71 20,9 [C0BBBD2E] [63DC1BF2]
72 10,8 [9446F75B] [14817342]
73 20,9 [8C357DF3] [FC20C5D4]
74 25,6 [29999E40] [6F847518]
75 8,8 [3F86D307] [57FBC1CD]
76 5,5 [730F10A7] [0D43C29E]
77 11,6 [03815C11] [3EB08DE7]
78 9,8 [16369556] [F5FE9149]
79 7,9 [C4051096] [18EB7BDA]
80 15,5 [893BD93F] [E6E379A0]
81 11,9 [B983C5FD] [D7B6A9D2]
82 10,5 [090ACF1C] [444E638E]
83 7,1 [6737BC32] [488C4C1C]
84 6,3 [CD8E6479] [772E4619]
85 10,3 [FB3EDBD3] [904E5EDE]
86 10,5 [B19C83E5] [433F9734]
87 6,9 [1ACB8A0B] [DD8D42E7]
88 100,0 [0845FA7C] [ECE51A5A]




Track [ CRC ] Status
01 [5e4d9eeb] (04/08) Accurately ripped as in pressing(s) *1
02 [094e3a59] (04/08) Accurately ripped as in pressing(s) *1
03 [35d534d5] (04/06) Accurately ripped as in pressing(s) *1
04 [6d9695a3] (04/08) Accurately ripped as in pressing(s) *1
05 [a2a38ef9] (04/08) Accurately ripped as in pressing(s) *1
06 [6f131ad4] (04/08) Accurately ripped as in pressing(s) *1
07 [e0bac076] (04/08) Accurately ripped as in pressing(s) *1
08 [7364a59c] (04/08) Accurately ripped as in pressing(s) *1
09 [6bc76e19] (04/08) Accurately ripped as in pressing(s) *1
10 [925cc1e0] (01/02) Accurately ripped as in pressing(s) *1
11 [5856d45d] (01/02) Accurately ripped as in pressing(s) *1
12 [c1fd9bbd] (01/02) Accurately ripped as in pressing(s) *1
13 [4fe847b5] (01/02) Accurately ripped as in pressing(s) *1
14 [3dc03d3e] (01/02) Accurately ripped as in pressing(s) *1
15 [316b56f6] (01/02) Accurately ripped as in pressing(s) *1
16 [e921da5b] (01/02) Accurately ripped as in pressing(s) *1
17 [eab26a5d] (01/02) Accurately ripped as in pressing(s) *1
18 [15121a74] (01/02) Accurately ripped as in pressing(s) *1
19 [0e5b6e15] (01/02) Accurately ripped as in pressing(s) *1
20 [6471634f] (01/02) Accurately ripped as in pressing(s) *1
21 [13606639] (01/02) Accurately ripped as in pressing(s) *1
22 [64d3be14] (01/02) Accurately ripped as in pressing(s) *1
23 [6b2866a4] (01/02) Accurately ripped as in pressing(s) *1
24 [438d29a6] (01/02) Accurately ripped as in pressing(s) *1
25 [71144dd1] (01/02) Accurately ripped as in pressing(s) *1
26 [6c4ac87a] (01/02) Accurately ripped as in pressing(s) *1
27 [70abfe03] (01/02) Accurately ripped as in pressing(s) *1
28 [4009b04a] (01/02) Accurately ripped as in pressing(s) *1
29 [c66f71e6] (01/02) Accurately ripped as in pressing(s) *1
30 [d96813f4] (01/02) Accurately ripped as in pressing(s) *1
31 [46f31ac4] (01/02) Accurately ripped as in pressing(s) *1
32 [46d96331] (01/02) Accurately ripped as in pressing(s) *1
33 [e69a852e] (01/02) Accurately ripped as in pressing(s) *1
34 [acc67811] (01/02) Accurately ripped as in pressing(s) *1
35 [39157574] (01/02) Accurately ripped as in pressing(s) *1
36 [c302ecf0] (01/02) Accurately ripped as in pressing(s) *1
37 [ba42a326] (01/02) Accurately ripped as in pressing(s) *1
38 [8c8f218c] (01/02) Accurately ripped as in pressing(s) *1
39 [89e804af] (01/02) Accurately ripped as in pressing(s) *1
40 [d8fca093] (01/02) Accurately ripped as in pressing(s) *1
41 [69594611] (01/02) Accurately ripped as in pressing(s) *1
42 [bfb39ec0] (01/02) Accurately ripped as in pressing(s) *1
43 [c6618c5e] (01/02) Accurately ripped as in pressing(s) *1
44 [16db74ef] (01/02) Accurately ripped as in pressing(s) *1
45 [cfa57488] (01/02) Accurately ripped as in pressing(s) *1
46 [6ff0e148] (01/02) Accurately ripped as in pressing(s) *1
47 [d6c86ae9] (01/02) Accurately ripped as in pressing(s) *1
48 [98dae4c1] (01/02) Accurately ripped as in pressing(s) *1
49 [0bed27e6] (01/02) Accurately ripped as in pressing(s) *1
50 [cddc5487] (01/02) Accurately ripped as in pressing(s) *1
51 [234949ff] (01/02) Accurately ripped as in pressing(s) *1
52 [a706c5d9] (01/02) Accurately ripped as in pressing(s) *1
53 [fec37ba7] (01/02) Accurately ripped as in pressing(s) *1
54 [dceb2e47] (01/02) Accurately ripped as in pressing(s) *1
55 [3bbb92e7] (01/02) Accurately ripped as in pressing(s) *1
56 [cb3ea7d8] (01/02) Accurately ripped as in pressing(s) *1
57 [21daba72] (01/02) Accurately ripped as in pressing(s) *1
58 [5cf413db] (01/02) Accurately ripped as in pressing(s) *1
59 [2e772398] (01/02) Accurately ripped as in pressing(s) *1
60 [096eeea6] (01/02) Accurately ripped as in pressing(s) *1
61 [e1b7afb5] (01/02) Accurately ripped as in pressing(s) *1
62 [1ff4b3fd] (01/02) Accurately ripped as in pressing(s) *1
63 [87234133] (01/02) Accurately ripped as in pressing(s) *1
64 [e03ade97] (01/02) Accurately ripped as in pressing(s) *1
65 [f5d320c1] (01/02) Accurately ripped as in pressing(s) *1
66 [37b79d50] (01/02) Accurately ripped as in pressing(s) *1
67 [b8829edc] (01/02) Accurately ripped as in pressing(s) *1
68 [fd931dc1] (01/02) Accurately ripped as in pressing(s) *1
69 [31e77b61] (01/02) Accurately ripped as in pressing(s) *1
70 [4badb912] (01/02) Accurately ripped as in pressing(s) *1
71 [f890e51e] (01/02) Accurately ripped as in pressing(s) *1
72 [76e8fa7c] (01/02) Accurately ripped as in pressing(s) *1
73 [2d6d68e2] (01/02) Accurately ripped as in pressing(s) *1
74 [e3bc62e9] (01/02) Accurately ripped as in pressing(s) *1
75 [6357d648] (01/02) Accurately ripped as in pressing(s) *1
76 [c017d291] (01/02) Accurately ripped as in pressing(s) *1
77 [65ad584f] (01/02) Accurately ripped as in pressing(s) *1
78 [3efc6ce4] (01/02) Accurately ripped as in pressing(s) *1
79 [22d3805b] (01/02) Accurately ripped as in pressing(s) *1
80 [26268f51] (01/02) Accurately ripped as in pressing(s) *1
81 [4e4db108] (01/02) Accurately ripped as in pressing(s) *1
82 [35c1a6af] (01/02) Accurately ripped as in pressing(s) *1
83 [a804c13c] (01/02) Accurately ripped as in pressing(s) *1
84 [17dd1594] (01/02) Accurately ripped as in pressing(s) *1
85 [e144c411] (01/02) Accurately ripped as in pressing(s) *1
86 [dbe0f4ec] (01/02) Accurately ripped as in pressing(s) *1
87 [5a304026] (01/02) Accurately ripped as in pressing(s) *1
88 [a35cb8b8] (04/08) Accurately ripped as in pressing(s) *1
Offseted by -659:
01 [5ac1a4c1] (02/08) Partial match to pressing(s) *2
02 [f3c1f25a] (02/08) Partial match to pressing(s) *2
03 [31a9284d] (02/06) Partial match to pressing(s) *2
04 [84ac812d] (02/08) Partial match to pressing(s) *2
05 [b36bfc94] (02/08) Partial match to pressing(s) *2
06 [e3087c12] (02/08) Partial match to pressing(s) *2
07 [65fdad0b] (02/08) Partial match to pressing(s) *2
08 [38564b41] (02/08) Partial match to pressing(s) *2
09 [963c2697] (02/08) Partial match to pressing(s) *2
10 [bbeb1ca5] (02/02) Partial match to pressing(s) *1,2,3
11 [a745c8a2] (02/02) Partial match to pressing(s) *1,2,3
12 [09bf8690] (02/02) Partial match to pressing(s) *1,2,3
13 [df2b884d] (02/02) Partial match to pressing(s) *1,2,3
14 [bdce1340] (02/02) Partial match to pressing(s) *1,2,3
15 [7ade75da] (02/02) Partial match to pressing(s) *1,2,3
16 [d9c90384] (02/02) Partial match to pressing(s) *1,2,3
17 [675b25fa] (02/02) Partial match to pressing(s) *1,2,3
18 [a0c90e08] (02/02) Partial match to pressing(s) *1,2,3
19 [0c32b1db] (02/02) Partial match to pressing(s) *1,2,3
20 [0ed781c1] (02/02) Partial match to pressing(s) *1,2,3
21 [2cf07c70] (02/02) Partial match to pressing(s) *1,2,3
22 [cfe4e76b] (02/02) Partial match to pressing(s) *1,2,3
23 [4ec56c9f] (02/02) Partial match to pressing(s) *1,2,3
24 [db279658] (02/02) Partial match to pressing(s) *1,2,3
25 [8ad04e3d] (02/02) Partial match to pressing(s) *1,2,3
26 [a61bc89d] (02/02) Partial match to pressing(s) *1,2,3
27 [a129ed97] (02/02) Partial match to pressing(s) *1,2,3
28 [ea0d7093] (02/02) Partial match to pressing(s) *1,2,3
29 [e7ba483b] (02/02) Partial match to pressing(s) *1,2,3
30 [3cdc5649] (02/02) Partial match to pressing(s) *1,2,3
31 [837950f6] (02/02) Partial match to pressing(s) *1,2,3
32 [b46a572f] (02/02) Partial match to pressing(s) *1,2,3
33 [d0b56c7a] (02/02) Partial match to pressing(s) *1,2,3
34 [c30753ac] (02/02) Partial match to pressing(s) *1,2,3
35 [d20c5793] (02/02) Partial match to pressing(s) *1,2,3
36 [296669f5] (02/02) Partial match to pressing(s) *1,2,3
37 [a9bfd5a9] (02/02) Partial match to pressing(s) *1,2,3
38 [f11d0982] (02/02) Partial match to pressing(s) *1,2,3
39 [55721942] (02/02) Partial match to pressing(s) *1,2,3
40 [a157675b] (02/02) Partial match to pressing(s) *1,2,3
41 [d6173a2c] (02/02) Partial match to pressing(s) *1,2,3
42 [affe7086] (02/02) Partial match to pressing(s) *1,2,3
43 [338c7b8c] (02/02) Partial match to pressing(s) *1,2,3
44 [6b3c8817] (02/02) Partial match to pressing(s) *1,2,3
45 [6e55a90a] (02/02) Partial match to pressing(s) *1,2,3
46 [ade56975] (02/02) Partial match to pressing(s) *1,2,3
47 [9cd6de10] (02/02) Partial match to pressing(s) *1,2,3
48 [95335ba7] (02/02) Partial match to pressing(s) *1,2,3
49 [b7f0fcf5] (02/02) Partial match to pressing(s) *1,2,3
50 [b66c9151] (02/02) Partial match to pressing(s) *1,2,3
51 [6aeed65b] (02/02) Partial match to pressing(s) *1,2,3
52 [846f943a] (02/02) Partial match to pressing(s) *1,2,3
53 [62097b49] (02/02) Partial match to pressing(s) *1,2,3
54 [12f2be56] (02/02) Partial match to pressing(s) *1,2,3
55 [b3b40cd6] (02/02) Partial match to pressing(s) *1,2,3
56 [76ef8b75] (02/02) Partial match to pressing(s) *1,2,3
57 [f0577b59] (02/02) Partial match to pressing(s) *1,2,3
58 [4509039d] (02/02) Partial match to pressing(s) *1,2,3
59 [a72f0cee] (02/02) Partial match to pressing(s) *1,2,3
60 [cbcc7090] (02/02) Partial match to pressing(s) *1,2,3
61 [16b9ba8f] (02/02) Partial match to pressing(s) *1,2,3
62 [779ef9a7] (02/02) Partial match to pressing(s) *1,2,3
63 [e013de7b] (02/02) Partial match to pressing(s) *1,2,3
64 [3b279657] (02/02) Partial match to pressing(s) *1,2,3
65 [6ca90980] (02/02) Partial match to pressing(s) *1,2,3
66 [15981e8c] (02/02) Partial match to pressing(s) *1,2,3
67 [fbe4cbf0] (02/02) Partial match to pressing(s) *1,2,3
68 [4bef9f03] (02/02) Partial match to pressing(s) *1,2,3
69 [b23191ce] (02/02) Partial match to pressing(s) *1,2,3
70 [fe826c53] (02/02) Partial match to pressing(s) *1,2,3
71 [bdecafd9] (02/02) Partial match to pressing(s) *1,2,3
72 [4d27fe3b] (02/02) Partial match to pressing(s) *1,2,3
73 [629f5af2] (02/02) Partial match to pressing(s) *1,2,3
74 [5b88a2a9] (02/02) Partial match to pressing(s) *1,2,3
75 [7ab08dcc] (02/02) Partial match to pressing(s) *1,2,3
76 [daecceb1] (02/02) Partial match to pressing(s) *1,2,3
77 [9e6101cc] (02/02) Partial match to pressing(s) *1,2,3
78 [a1675137] (02/02) Partial match to pressing(s) *1,2,3
79 [172f7a54] (02/02) Partial match to pressing(s) *1,2,3
80 [90098f43] (02/02) Partial match to pressing(s) *1,2,3
81 [eeb7413a] (02/02) Partial match to pressing(s) *1,2,3
82 [79ba8f8f] (02/02) Partial match to pressing(s) *1,2,3
83 [c888cc0a] (02/02) Partial match to pressing(s) *1,2,3
84 [adc7560b] (02/02) Partial match to pressing(s) *1,2,3
85 [2d8730eb] (02/02) Partial match to pressing(s) *1,2,3
86 [b98db7fb] (02/02) Partial match to pressing(s) *1,2,3
87 [e78563c9] (02/02) Partial match to pressing(s) *1,2,3
88 [f62d8ffa] (02/08) Partial match to pressing(s) *2


Track [ CRC32 ] [W/O NULL]
01 [C3010D99] [E167971B]
02 [27E92C9F] [286A3F7B]
03 [BA54E78A] [7F9A3C56]
04 [F7E809BD] [473C2E55]
05 [B3F19F32] [AF79D26B]
06 [5992CDE7] [0ABBFFC6]
07 [5AD97741] [CBC42AB5]
08 [FA1BC36C] [E07A0DB9]
09 [FB488FF3] [BA5FD2DA]
10 [B7C76B17] [0A037F8F]
11 [7F8988AC] [6A0EF38E]
12 [20FA1655] [D3DEAAD8]
13 [E7FDE3CB] [43331246]
14 [93E9D7A7] [369F560E]
15 [018AA3E9] [E0ACB668]
16 [F1838E07] [C300D0F7]
17 [F3B60201] [9AF3B9E9]
18 [9DAE2387] [4EDCDF67]
19 [2F7AE831] [448B6269]
20 [6640B4B3] [7BDFC419]
21 [0697D4D8] [D9C1A357]
22 [6B89804A] [444C9A65]
23 [F434FBEC] [CC666098]
24 [6A4A90DF] [DFCAA8C4]
25 [870EC7DE] [91CB1BB9]
26 [88065791] [C746BA58]
27 [DAF94642] [9B31EE9E]
28 [90A0C361] [A3045B12]
29 [0430410E] [891B7848]
30 [29A0E20E] [9508900E]
31 [CC923ECC] [B978A200]
32 [AC75CFF6] [E6619478]
33 [9BDAF64E] [75B80369]
34 [58F76C73] [3E10D257]
35 [A378BFA7] [15A0D095]
36 [B7BEAD99] [19A92209]
37 [2F22682B] [E79C1AF5]
38 [16A42863] [22AA2DB9]
39 [831B3882] [A3F0C401]
40 [F40F1357] [D5128AA7]
41 [76BB0624] [24588BBD]
42 [E17D37E1] [D5F8D567]
43 [65E8A59A] [80F80619]
44 [DB9FAC67] [07332E6B]
45 [7B1264CC] [54932C23]
46 [EFAA4BF8] [C4AE4E79]
47 [A7A203FB] [A4DB115B]
48 [CECDB6E1] [32DAA499]
49 [81A7D9E7] [F38E59F7]
50 [EC9F516E] [76F56013]
51 [1D4C5A56] [EDA57C21]
52 [884E6929] [87B5D4F6]
53 [31741FFE] [8A696198]
54 [C8F860EF] [495BD178]
55 [3A294AD8] [915A07F2]
56 [00B79A99] [D49AC1C9]
57 [9EB92A4B] [3345BE35]
58 [1E4D5ABF] [3FD26F38]
59 [42B4A613] [1ADA31A7]
60 [71C3E2DC] [2C16E09C]
61 [9519D81E] [D43B4F7A]
62 [F63B1F99] [D9421196]
63 [1C2BA93B] [760692C4]
64 [A4E0674C] [BD99EEB1]
65 [E9B25B12] [F262AF9B]
66 [97B486A9] [6EEBD0A8]
67 [274CF07B] [A2BAF531]
68 [0159B608] [DD8BECD9]
69 [8DD5CFE4] [89593C6B]
70 [B4F3822E] [76C07C8D]
71 [C0BBBD2E] [63DC1BF2]
72 [9446F75B] [14817342]
73 [8C357DF3] [FC20C5D4]
74 [29999E40] [6F847518]
75 [3F86D307] [57FBC1CD]
76 [730F10A7] [0D43C29E]
77 [03815C11] [3EB08DE7]
78 [16369556] [F5FE9149]
79 [C4051096] [18EB7BDA]
80 [893BD93F] [E6E379A0]
81 [B983C5FD] [D7B6A9D2]
82 [090ACF1C] [444E638E]
83 [6737BC32] [488C4C1C]
84 [CD8E6479] [772E4619]
85 [FB3EDBD3] [904E5EDE]
86 [B19C83E5] [433F9734]
87 [1ACB8A0B] [DD8D42E7]
88 [0845FA7C] [ECE51A5A]

Porcus
01-30-2017, 01:11 AM
I thought that AccurateRip needed 10 seconds of tracks to store the result, perhaps cuetools is using its own database.

I did not remember that you had answered the question before: https://forum.dbpoweramp.com/showthread.php?17845-lt-1-sec-length-yet-in-AccurateRip
But even that is wrong, according to logs; these are 37 samples.

Porcus
02-05-2017, 03:43 PM
New issue: "0 Total Albums".
The folder contains a folder with an album of ten tracks (unfortunately, HDCD-decoded upon ripping).
I can see that it scans all the tracks. It does neither show up as "Not Lossless CD Quality" nor anything else: "0 Total Albums".

Maxpower
08-14-2017, 02:15 AM
Just wanted to add that I am also experiencing PerfectTunes reporting rip errors when the rip log output shows no such errors. Reports many albums like this (even though they were all successfully ripped with dbpoweramp ripper).