PDA

View Full Version : CD ripper has stopped working on my Mac



Simon TF
05-29-2015, 12:03 PM
The CD loads up, then when I press rip it goes through all of the tracks and then quickly says 'error' on each on. I have tried it with a CD I ripped 6 months ago and the same result. Any ideas? Thanks.

mjock3
05-29-2015, 04:24 PM
I have the same thing happening. I am somewhat new to Mac so that could be part of it. Here is what is showing under errors:Information converting to AIFF, 'Track 1' to '/Volumes/MiniPro/Sonny Clark/Cool Struttin'/01 Sonny Clark - Cool Struttin'.aif'
Track 1: Ripped LBA 0 to 42271 (9:23) in 0:00. Filename: /Volumes/MiniPro/Sonny Clark/Cool Struttin'/01 Sonny Clark - Cool Struttin'.aif
[Pass 1]
CRC32: BCE36F2A AccurateRip CRC: 00000000 [DiscID: 006-000d6421-0046f559-5d0c9406-1]
Information converting to AIFF, 'Track 2' to '/Volumes/MiniPro/Sonny Clark/Cool Struttin'/02 Sonny Clark - Blue Minor.aif'
Track 2: Ripped LBA 42271 to 88751 (10:19) in 0:00. Filename: /Volumes/MiniPro/Sonny Clark/Cool Struttin'/02 Sonny Clark - Blue Minor.aif
[Pass 1]
CRC32: 7F68951C AccurateRip CRC: 00000000 [DiscID: 006-000d6421-0046f559-5d0c9406-2]
Information converting to AIFF, 'Track 3' to '/Volumes/MiniPro/Sonny Clark/Cool Struttin'/03 Sonny Clark - Sippin' at Bells.aif'
Track 3: Ripped LBA 88751 to 126131 (8:18) in 0:00. Filename: /Volumes/MiniPro/Sonny Clark/Cool Struttin'/03 Sonny Clark - Sippin' at Bells.aif
[Pass 1]
CRC32: 24D6C4FB AccurateRip CRC: 00000000 [DiscID: 006-000d6421-0046f559-5d0c9406-3]
Information converting to AIFF, 'Track 4' to '/Volumes/MiniPro/Sonny Clark/Cool Struttin'/04 Sonny Clark - Deep Night.aif'
Track 4: Ripped LBA 126131 to 169185 (9:34) in 0:00. Filename: /Volumes/MiniPro/Sonny Clark/Cool Struttin'/04 Sonny Clark - Deep Night.aif
[Pass 1]
CRC32: A8E42282 AccurateRip CRC: 00000000 [DiscID: 006-000d6421-0046f559-5d0c9406-4]
Information converting to AIFF, 'Track 5' to '/Volumes/MiniPro/Sonny Clark/Cool Struttin'/05 Sonny Clark - Royal Flush.aif'
Track 5: Ripped LBA 169185 to 209757 (9:00) in 0:00. Filename: /Volumes/MiniPro/Sonny Clark/Cool Struttin'/05 Sonny Clark - Royal Flush.aif
[Pass 1]
CRC32: CB5FB996 AccurateRip CRC: 00000000 [DiscID: 006-000d6421-0046f559-5d0c9406-5]
Information converting to AIFF, 'Track 6' to '/Volumes/MiniPro/Sonny Clark/Cool Struttin'/06 Sonny Clark - Lover.aif'
Track 6: Ripped LBA 209757 to 241506 (7:03) in 0:00. Filename: /Volumes/MiniPro/Sonny Clark/Cool Struttin'/06 Sonny Clark - Lover.aif
[Pass 1]
CRC32: 32913A7D AccurateRip CRC: 00000000 [DiscID: 006-000d6421-0046f559-5d0c9406-6]
Thanks,

Mark

mjock3
05-29-2015, 07:59 PM
Simon, make sure you have read/write permission on drive that music is saved to. Somehow that got change in mine with recent itunes update. I changed that and things are working for me.