PDA

View Full Version : AccurateRip Configure?



Renatar567
08-26-2014, 10:08 AM
How do I configure it? it isnt showing me any pop up, and I cant find anywhere to do it manually.
(I' ve reinstalled Poweramp after a Windows reinstall).

garym
08-26-2014, 10:15 AM
How do I configure it? it isnt showing me any pop up, and I cant find anywhere to do it manually.
(I' ve reinstalled Poweramp after a Windows reinstall).

in ripper screen, click on options, and tick the 3 boxes under ACCURATERIP heading. also make sure you've set ripping options for ultrasecure settings. then just start feeding the ripper popular CDs until it configures itself. there is no manual configuration.

Spoon
08-26-2014, 11:07 AM
Also in Options is an accurateRip section, if it shows an offset then it is already configured.

Renatar567
08-26-2014, 12:53 PM
Well, yeah I've ticked all the boxes, and under the AccurateRip section it's saying with this oranje I that it isn't configured yet. I've entered a classical CD that says Not In Accurate Rip, but it's from 2003. I doubt that it has gone unripped all this time.

garym
08-26-2014, 01:23 PM
Well, yeah I've ticked all the boxes, and under the AccurateRip section it's saying with this oranje I that it isn't configured yet. I've entered a classical CD that says Not In Accurate Rip, but it's from 2003. I doubt that it has gone unripped all this time.

Even though AR has millions of CDs in its database, it can be surprising what's not there. And keep in mind that even a very popular CD (and older) may not be in the database because the PRESSING you happen to have is not in the database. A different pressing might very well show up. For example, just this weekend I ripped a Janis Joplin's Greatest Hits CD that's from the early 1990s. It's not in the AR database although I'm sure that it has probably been ripped many times. But my PRESSING may be an unusual pressing.

mraulino
05-09-2015, 07:27 PM
I just purchased the Mac version and should be missing something very obvious, but can't find a way to configure accurate rip.

I have a 2013 MBP on Yosemite, and this is what I see when I click on "option":

599

Then I push the "configure now" button, but nothing happens. Really -- no window pops up, nothing.

Is it the normal behaviour, or maybe some incompatibility with my MBP, or BD drive?

Thanks in advance!
Mario

Spoon
05-10-2015, 06:53 AM
Try R1.2 which is in the testing section of this forum.

mraulino
05-11-2015, 05:47 PM
Try R1.2 which is in the testing section of this forum.

Thanks for the prompt reply, Mr. Spoon. But unfortunately the behaviour with R1.2 beta is the same as before.

Would you like me to send any other specific printscreen or info that could provide more details?

thanks,
Mario

mraulino
05-14-2015, 03:12 PM
so here is the log of a CD I ripped just a couple of hours ago, with CD Ripper's Options still showing the "Accuraterip is unconfigured" message, and the "Configure now" button not reacting (at least apparently) when I click it. At the same time, the log says that Accuraterip is active, leaving me confused...



dBpoweramp Digital Audio Extraction Log from 2015-05:15 02:00:09

Drive & Settings
----------------

Ripping with drive 'disk3 [ASUS - SBW-06D2X-U]', Drive offset: 0, Overread Lead-in/out: No
AccurateRip: Active, Using C2: Yes, Cache: 1024 KB, FUA Cache Invalidate: No
Pass 1 Drive Speed: Max, Pass 2 Drive Speed: Max
Ultra:: Vary Drive Speed: No, Min Passes: 3, Max Passes: 6, Finish After Clean Passes: 2
Bad Sector Re-rip:: Drive Speed: Max, Maximum Re-reads: 34

Encoder: AIFF

Extraction Log
--------------

Track 1: Ripped LBA 0 to 8792 (1:57) in 0:57. Filename: /Volumes/Mario2/Paul McCartney/Run Devil Run [CDP 7243 5 22351 2 4]/01 Paul McCartney - Blue Jean Bop.aif
Secure [Pass 1, Ultra 1 to 3]
CRC32: 7209CA00 AccurateRip CRC: 0B71CB42 (CRCv2) [DiscID: 015-0015a7d5-00f87dcb-da098e0f-1]

Track 2: Ripped LBA 8792 to 18290 (2:06) in 0:54. Filename: /Volumes/Mario2/Paul McCartney/Run Devil Run [CDP 7243 5 22351 2 4]/02 Paul McCartney - She Said Yeah.aif
Secure [Pass 1, Ultra 1 to 3]
CRC32: 20777B3A AccurateRip CRC: CCFCFF56 (CRCv2) [DiscID: 015-0015a7d5-00f87dcb-da098e0f-2]

Track 3: Ripped LBA 18290 to 27720 (2:05) in 0:51. Filename: /Volumes/Mario2/Paul McCartney/Run Devil Run [CDP 7243 5 22351 2 4]/03 Paul McCartney - All Shook Up.aif
Secure [Pass 1, Ultra 1 to 3]
CRC32: A49F0657 AccurateRip CRC: 1669B647 (CRCv2) [DiscID: 015-0015a7d5-00f87dcb-da098e0f-3]

Track 4: Ripped LBA 27720 to 39450 (2:36) in 1:00. Filename: /Volumes/Mario2/Paul McCartney/Run Devil Run [CDP 7243 5 22351 2 4]/04 Paul McCartney - Run Devil Run.aif
Secure [Pass 1, Ultra 1 to 3]
CRC32: 9FEC2F8A AccurateRip CRC: FB4C886A (CRCv2) [DiscID: 015-0015a7d5-00f87dcb-da098e0f-4]

Track 5: Ripped LBA 39450 to 58792 (4:17) in 1:32. Filename: /Volumes/Mario2/Paul McCartney/Run Devil Run [CDP 7243 5 22351 2 4]/05 Paul McCartney - No Other Baby.aif
Secure [Pass 1, Ultra 1 to 3]
CRC32: 84ABA72B AccurateRip CRC: 1C438803 (CRCv2) [DiscID: 015-0015a7d5-00f87dcb-da098e0f-5]

Track 6: Ripped LBA 58792 to 74565 (3:30) in 1:10. Filename: /Volumes/Mario2/Paul McCartney/Run Devil Run [CDP 7243 5 22351 2 4]/06 Paul McCartney - Lonesome Town.aif
Secure [Pass 1, Ultra 1 to 3]
CRC32: EA887E21 AccurateRip CRC: 0F877E7A (CRCv2) [DiscID: 015-0015a7d5-00f87dcb-da098e0f-6]

Track 7: Ripped LBA 74565 to 86625 (2:40) in 0:51. Filename: /Volumes/Mario2/Paul McCartney/Run Devil Run [CDP 7243 5 22351 2 4]/07 Paul McCartney - Try Not To Cry.aif
Secure [Pass 1, Ultra 1 to 3]
CRC32: 13367CEB AccurateRip CRC: A08392B2 (CRCv2) [DiscID: 015-0015a7d5-00f87dcb-da098e0f-7]

Track 8: Ripped LBA 86625 to 96547 (2:12) in 0:40. Filename: /Volumes/Mario2/Paul McCartney/Run Devil Run [CDP 7243 5 22351 2 4]/08 Paul McCartney - Movie Magg.aif
Secure [Pass 1, Ultra 1 to 3]
CRC32: 186AB10D AccurateRip CRC: 3C44F133 (CRCv2) [DiscID: 015-0015a7d5-00f87dcb-da098e0f-8]

Track 9: Ripped LBA 96547 to 107587 (2:27) in 0:44. Filename: /Volumes/Mario2/Paul McCartney/Run Devil Run [CDP 7243 5 22351 2 4]/09 Paul McCartney - Brown Eyed Handsome Man.aif
Secure [Pass 1, Ultra 1 to 3]
CRC32: 505BBFD0 AccurateRip CRC: BDD0DE2D (CRCv2) [DiscID: 015-0015a7d5-00f87dcb-da098e0f-9]

Track 10: Ripped LBA 107587 to 118317 (2:23) in 0:41. Filename: /Volumes/Mario2/Paul McCartney/Run Devil Run [CDP 7243 5 22351 2 4]/10 Paul McCartney - What It Is.aif
Secure [Pass 1, Ultra 1 to 3]
CRC32: 4C10858C AccurateRip CRC: FF9BB0DC (CRCv2) [DiscID: 015-0015a7d5-00f87dcb-da098e0f-10]

Track 11: Ripped LBA 118317 to 130535 (2:42) in 0:45. Filename: /Volumes/Mario2/Paul McCartney/Run Devil Run [CDP 7243 5 22351 2 4]/11 Paul McCartney - Coquette.aif
Secure [Pass 1, Ultra 1 to 3]
CRC32: 869AFCE5 AccurateRip CRC: C0006B6A (CRCv2) [DiscID: 015-0015a7d5-00f87dcb-da098e0f-11]

Track 12: Ripped LBA 130535 to 142567 (2:40) in 0:43. Filename: /Volumes/Mario2/Paul McCartney/Run Devil Run [CDP 7243 5 22351 2 4]/12 Paul McCartney - I Got Stung.aif
Secure [Pass 1, Ultra 1 to 3]
CRC32: E1726E22 AccurateRip CRC: 0F45C8B8 (CRCv2) [DiscID: 015-0015a7d5-00f87dcb-da098e0f-12]

Track 13: Ripped LBA 142567 to 154252 (2:35) in 0:41. Filename: /Volumes/Mario2/Paul McCartney/Run Devil Run [CDP 7243 5 22351 2 4]/13 Paul McCartney - Honey Hush.aif
Secure [Pass 1, Ultra 1 to 3]
CRC32: 69496787 AccurateRip CRC: 3D320C6F (CRCv2) [DiscID: 015-0015a7d5-00f87dcb-da098e0f-13]

Track 14: Ripped LBA 154252 to 171672 (3:52) in 0:59. Filename: /Volumes/Mario2/Paul McCartney/Run Devil Run [CDP 7243 5 22351 2 4]/14 Paul McCartney - Shake A Hand.aif
Secure [Pass 1, Ultra 1 to 3]
CRC32: 954B7CAB AccurateRip CRC: BC86DA68 (CRCv2) [DiscID: 015-0015a7d5-00f87dcb-da098e0f-14]

Track 15: Ripped LBA 171672 to 183510 (2:37) in 0:39. Filename: /Volumes/Mario2/Paul McCartney/Run Devil Run [CDP 7243 5 22351 2 4]/15 Paul McCartney - Party.aif
Secure [Pass 1, Ultra 1 to 3]
CRC32: 661695B7 AccurateRip CRC: 6EDA8697 (CRCv2) [DiscID: 015-0015a7d5-00f87dcb-da098e0f-15]

--------------

15 Tracks Ripped Securely

dbfan
05-14-2015, 03:46 PM
The issue is your CD Drive, if you visit:

http://accuraterip.com/driveoffsets.htm

you will see it is purged from the database, this is because the drive does not have a consistent offset across the range. There are not many drives like is, it is not the best.