PDA

View Full Version : boxed sets



Danelaw
10-06-2008, 12:30 PM
Heya.. just bought DB, mainly for the batch ripper, if tryed searching the forums like a good n00b, but nothing to answer my question.. so here goes ;)

Is theree a way to make the batch ripper keep separate discs, from boxed sets in their own folders insteed of now where it just throws everything in the same folder.

Since DB dosnt make a playlist, its pretty messy when i rip a 10 CD box set of chopin into one folder ;) I have alot of classic, with box sets like that. so it would really be helpfull..

cheers..

Spoon
10-06-2008, 01:32 PM
Yes, Meta Button >> use the option to add disc number to the album tag.

Danelaw
10-06-2008, 03:29 PM
thx alot spoon.. you really are "da Man"..

I also notice on most of my classic CD's, the ripper uses secure ultra etc, on them when there is no accurate rip data available..( that seems to be on like roughly 70% of them) thus taking 30 minutes to rip the disks, most of wich are prestine, is this simply because its the first entry to the accurate database? all the pop music breezes in and out in 5 minutes..

like this one..

dBpoweramp Release 13.1 Digital Audio Extraction Log from 6. oktober 2008 9:26

Drive & Settings
----------------

Ripping with drive 'E: [TSSTcorp - CDDVDW SH-S223F ]', Drive offset: 6, Overread Lead-in/out: No
AccurateRip: Active, Using C2: Yes, Cache: None, FUA Cache Invalidate: Yes
Pass 1 Drive Speed: Max, Pass 2 Drive Speed: Max
Ultra:: Vary Drive Speed: Yes, Min Passes: 3, Max Passes: 6, Finish After Clean Passes: 2
Bad Sector Re-rip:: Drive Speed: Max, Maximum Re-reads: 34

Encoder: FLAC -compression-level-5 -verify
DSP Effects / Actions: -dspeffect1="Bit Depth=-mindepth={qt}8{qt} -maxdepth={qt}24{qt}" -dspeffect2="HDCD="

Extraction Log
--------------

Track 1: Ripped LBA 0 to 16537 (3:40) in 1:38. Filename: F:\MUSIK\Krystaf Lecian\Niccolo Paganini\Krystaf Lecian - 01 - Ii. Moderato.flac
Secure [Pass 1, Ultra 1 to 3]
CRC32: 73E978AB AccurateRip CRC: 0CA38D18 [DiscID: 017-00327f86-0270f087-dd124a11-1]

Track 2: Ripped LBA 16537 to 35112 (4:07) in 1:37. Filename: F:\MUSIK\Krystaf Lecian\Niccolo Paganini\Krystaf Lecian - 02 - Iii. Sostenuto.flac
Secure [Pass 1, Ultra 1 to 3]
CRC32: 0924CB54 AccurateRip CRC: AD3667B1 [DiscID: 017-00327f86-0270f087-dd124a11-2]

Track 3: Ripped LBA 35112 to 76662 (9:14) in 3:18. Filename: F:\MUSIK\Krystaf Lecian\Niccolo Paganini\Krystaf Lecian - 03 - Iv. Maestoso.flac
Secure [Pass 1, Ultra 1 to 3]
CRC32: C2C08242 AccurateRip CRC: 969F19E0 [DiscID: 017-00327f86-0270f087-dd124a11-3]

Track 4: Ripped LBA 76662 to 107702 (6:53) in 2:18. Filename: F:\MUSIK\Krystaf Lecian\Niccolo Paganini\Krystaf Lecian - 04 - Vi. Adagio.flac
Secure [Pass 1, Ultra 1 to 3]
CRC32: C2849A65 AccurateRip CRC: B4BDB5DB [DiscID: 017-00327f86-0270f087-dd124a11-4]

Track 5: Ripped LBA 107702 to 133977 (5:50) in 1:53. Filename: F:\MUSIK\Krystaf Lecian\Niccolo Paganini\Krystaf Lecian - 05 - Vii. Portano.flac
Secure [Pass 1, Ultra 1 to 3]
CRC32: 40C9A377 AccurateRip CRC: 573D3F8B [DiscID: 017-00327f86-0270f087-dd124a11-5]

Track 6: Ripped LBA 133977 to 155180 (4:42) in 1:29. Filename: F:\MUSIK\Krystaf Lecian\Niccolo Paganini\Krystaf Lecian - 06 - Viii. Maestoso.flac
Secure [Pass 1, Ultra 1 to 3]
CRC32: D54E8533 AccurateRip CRC: 9E594D73 [DiscID: 017-00327f86-0270f087-dd124a11-6]

Track 7: Ripped LBA 155180 to 170965 (3:30) in 1:05. Filename: F:\MUSIK\Krystaf Lecian\Niccolo Paganini\Krystaf Lecian - 07 - Ix. Allegretto.flac
Secure [Pass 1, Ultra 1 to 3]
CRC32: 8F500A06 AccurateRip CRC: 4C1FC63D [DiscID: 017-00327f86-0270f087-dd124a11-7]

Track 8: Ripped LBA 170965 to 185847 (3:18) in 1:01. Filename: F:\MUSIK\Krystaf Lecian\Niccolo Paganini\Krystaf Lecian - 08 - Xvivace.flac
Secure [Pass 1, Ultra 1 to 3]
CRC32: 27A950F7 AccurateRip CRC: 9B12AA83 [DiscID: 017-00327f86-0270f087-dd124a11-8]

Track 9: Ripped LBA 185847 to 209980 (5:21) in 1:35. Filename: F:\MUSIK\Krystaf Lecian\Niccolo Paganini\Krystaf Lecian - 09 - Xi. Andante, Presto, Adante.flac
Secure [Pass 1, Ultra 1 to 3]
CRC32: 980AF8D2 AccurateRip CRC: 5A851D7C [DiscID: 017-00327f86-0270f087-dd124a11-9]

Track 10: Ripped LBA 209980 to 220397 (2:18) in 0:43. Filename: F:\MUSIK\Krystaf Lecian\Niccolo Paganini\Krystaf Lecian - 10 - Xiii. Allegro (Nou Troupo).flac
Secure [Pass 1, Ultra 1 to 3]
CRC32: 302F77E6 AccurateRip CRC: D872B6EB [DiscID: 017-00327f86-0270f087-dd124a11-10]

Track 11: Ripped LBA 220397 to 227342 (1:32) in 0:30. Filename: F:\MUSIK\Krystaf Lecian\Niccolo Paganini\Krystaf Lecian - 11 - XIV Modernato.flac
Secure [Pass 1, Ultra 1 to 3]
CRC32: FE8CF477 AccurateRip CRC: AEB72EC9 [DiscID: 017-00327f86-0270f087-dd124a11-11]

Track 12: Ripped LBA 227342 to 245022 (3:55) in 1:09. Filename: F:\MUSIK\Krystaf Lecian\Niccolo Paganini\Krystaf Lecian - 12 - Xv. Posato.flac
Secure [Pass 1, Ultra 1 to 3]
CRC32: 0B70C118 AccurateRip CRC: E3B451BC [DiscID: 017-00327f86-0270f087-dd124a11-12]

Track 13: Ripped LBA 245022 to 266542 (4:46) in 1:22. Filename: F:\MUSIK\Krystaf Lecian\Niccolo Paganini\Krystaf Lecian - 13 - Xvii. Sostenuto, Andante.flac
Secure [Pass 1, Ultra 1 to 3]
CRC32: 41B8DAF0 AccurateRip CRC: 366D0E99 [DiscID: 017-00327f86-0270f087-dd124a11-13]

Track 14: Ripped LBA 266542 to 282782 (3:36) in 1:02. Filename: F:\MUSIK\Krystaf Lecian\Niccolo Paganini\Krystaf Lecian - 14 - Xviii. Corrento Allegro.flac
Secure [Pass 1, Ultra 1 to 3]
CRC32: 95A56A8F AccurateRip CRC: 9B86E032 [DiscID: 017-00327f86-0270f087-dd124a11-14]

Track 15: Ripped LBA 282782 to 301825 (4:13) in 1:11. Filename: F:\MUSIK\Krystaf Lecian\Niccolo Paganini\Krystaf Lecian - 15 - Xxi. Amoroso, Presto.flac
Secure [Pass 1, Ultra 1 to 3]
CRC32: 4A476A15 AccurateRip CRC: 35EBD9D1 [DiscID: 017-00327f86-0270f087-dd124a11-15]

Track 16: Ripped LBA 301825 to 322402 (4:34) in 1:15. Filename: F:\MUSIK\Krystaf Lecian\Niccolo Paganini\Krystaf Lecian - 16 - Xxiii. Posato.flac
Secure [Pass 1, Ultra 1 to 3]
CRC32: F593720B AccurateRip CRC: 6BC4A3E6 [DiscID: 017-00327f86-0270f087-dd124a11-16]

Track 17: Ripped LBA 322402 to 351172 (6:23) in 1:42. Filename: F:\MUSIK\Krystaf Lecian\Niccolo Paganini\Krystaf Lecian - 17 - Xxiv. Tema Con Variazioni.flac
Secure [Pass 1, Ultra 1 to 3]
CRC32: 3AB224AF AccurateRip CRC: 11260984 [DiscID: 017-00327f86-0270f087-dd124a11-17]

--------------

17 Tracks Ripped Securely

Spoon
10-07-2008, 03:06 AM
That is right, if a disc is not in AccurateRip then with your setup (3 ultra passes) there are 4x reads of the CD.

Porcus
10-07-2008, 11:49 AM
DSP Effects / Actions: -dspeffect1="Bit Depth=-mindepth={qt}8{qt} -maxdepth={qt}24{qt}" -dspeffect2="HDCD="

Why the mindepth and maxdepth?

By the way: If you are using dual core, you could use flac compression option = 8 without losing much time -- at least on non-AR CDs, where ripping the next track takes so much time that it will in most cases be done encoding. Some time you might need another hard drive.

Danelaw
10-08-2008, 02:19 AM
thx alot for the
replys guys..

as to why.. well.. like most enthusiasts, my main concern is simply to get, the most accurate rip possible, and since alot of my CD's are not in the database, im just trying to make sure i get it right.

I've been using EAC until now.I just bought DB, because some of my CD's are from the childhood of the CD, and im worryed they wont survie alot longer.. so nows the time to rip my entire collection.


What settings would you recomend then porcus, I dont mind the 30 minutes, if thats the best way. but it kinda ruins my workflow ;)

Spoon
10-08-2008, 03:23 AM
With CD Ripping you do not need the DSP effect 'Bit Depth'